Подписывайся на наш канал в Telegram https://t.me/torrentok и получи доступ к торрентам без ограничений!
.
Авторизация | Регистрация
bitok.xyz
Торрент скачать бесплатно Фильмы торрент скачать Тёмная сторона / Bloodline (2018) BDRip [H.265] [10-bit] торрент скачать бесплатно


    Тёмная сторона / Bloodline (2018) BDRip [H.265] [10-bit] торрент скачать бесплатно

    Дата: 29-01-2020, 05:00 | .torrent скачали: 0

    Тёмная сторона / Bloodline (2018) BDRip [H.265] [10-bit]Производство: США, Divide/Conquer, Mind Hive Films, Blumhouse Productions
    Жанр: Триллер, криминал
    Режиссер: Генри Джейкобсон

    Актеры
    Шонн Уильям Скотт, Мариэла Гаррига, Дейл Дикки, Кристи Херринг, Рэймонд Александр Чэм мл., Ник Борэйни, Кевин Кэрролл, Шон Х. Скалли, Мэттью Флинн Беллоуз, Лейт М. Бурк

    Описание

    В жизни Эвана все прекрасно и стабильно — любящая жена, маленький ребенок и интересная работа школьного психолога. Но никто из окружающих не догадывается, что у жизни Эвана есть и другая, тёмная сторона, на которую лучше не заходить никому.

    Возраст: 18+ (зрителям, достигшим 18 лет. запрещено для детей)
    Рейтинг MPAA: R (лицам до 17 лет обязательно присутствие взрослого)
    Премьера (мир): 22 сентября 2018
    Премьера (РФ): 28 ноября 2019
    Продолжительность: 01: 36: 38
    Качество видео: HDRip
    Перевод: Дублированный (iTunes)
    Субтитры: Отсутствуют
    Видео: HEVC/H.265, 1024x512, 1939 Kbps
    Аудио 1 : AC3, 2 ch, 160 Kbps | Русский
    Аудио 2 : AC3, 2 ch, 160 Kbps | АнглийскийОбщее
    Уникальный идентификатор : 300027235936544138582817169683697215070 (0xE1B724CEE8E656A1C70FF3151D95A65E)
    Полное имя : Bloodline.2018.HDRip.HEVC.mkv
    Формат : Matroska
    Версия формата : Version 4/Version 2
    Размер файла : 1, 56 Гбайт
    Продолжительность : 1 ч. 36 м.
    Общий поток : 2305 Кбит/сек
    Программа кодирования : XviD4PSP 8.0.91
    Библиотека кодирования : Lavf58.20.100
    ErrorDetectionType : Per level 1
    ENCODING_INFO : MATROSKA, WEBM MKV 1024 x 576
    Видео
    Идентификатор : 1
    Формат : HEVC
    Формат/Информация : High Efficiency Video Coding
    Профиль формата : Main10@L4.1@High
    Идентификатор кодека : V_MPEGH/ISO/HEVC
    Продолжительность : 1 ч. 36 м.
    Битрейт : 1939 Кбит/сек
    Ширина : 1024 пикселя
    Высота : 512 пикселей
    Соотношение сторон : 2, 000
    Режим частоты кадров : Постоянный
    Частота кадров : 23, 976 (24000/1001) кадра/сек
    Цветовое пространство : YUV
    Субдискретизация насыщенности : 4: 2: 0
    Битовая глубина : 10 бит
    Бит/(Пиксели*Кадры) : 0.154
    Размер потока : 1, 31 Гбайт (84%)
    Язык : English
    Default : Да
    Forced : Нет
    Цветовой диапазон : Full
    ENCODING_INFO : H264 HEVC NVENC VBR 2000kbps HQ
    Аудио #1
    Идентификатор : 2
    Формат : AC-3
    Формат/Информация : Audio Coding 3
    Параметр Endianness формата : Big
    Идентификатор кодека : A_AC3
    Продолжительность : 1 ч. 36 м.
    Вид битрейта : Постоянный
    Битрейт : 160 Кбит/сек
    Каналы : 2 канала
    Расположение каналов : Front: L R
    Частота : 48, 0 КГц
    Частота кадров : 31, 250 кадров/сек (1536 SPF)
    Битовая глубина : 16 бит
    Метод сжатия : С потерями
    Размер потока : 111 Мбайт (7%)
    Язык : Russian
    ServiceKind/String : Complete Main
    Default : Да
    Forced : Нет
    ENCODING_INFO : AC3 AC3 CBR 160kbps
    Аудио #2
    Идентификатор : 3
    Формат : AC-3
    Формат/Информация : Audio Coding 3
    Параметр Endianness формата : Big
    Идентификатор кодека : A_AC3
    Продолжительность : 1 ч. 36 м.
    Вид битрейта : Постоянный
    Битрейт : 160 Кбит/сек
    Каналы : 2 канала
    Расположение каналов : Front: L R
    Частота : 48, 0 КГц
    Частота кадров : 31, 250 кадров/сек (1536 SPF)
    Битовая глубина : 16 бит
    Метод сжатия : С потерями
    Размер потока : 111 Мбайт (7%)
    Язык : English
    ServiceKind/String : Complete Main
    Default : Нет
    Forced : Нет
    ENCODING_INFO : DTS AC3 CBR 160kbps

    Скриншоты для ознакомления



    Все одноименные релизы в Клубе
    Время раздачи: 19 - 23 (до появления первых 3-5 скачавших)

    Онлайн видео Тёмная сторона



    Тёмная сторона / Bloodline (2018) BDRip [H.265] [10-bit] торрент скачать бесплатно
    Рейтинг →
     (голосов: 1, оценка 3/5, голосовать можно 1 раз )

    Другие торренты по теме:

  • Трансформеры 3: Тёмная сторона Луны / Transformers: Dark of the Moon (2011) BDRip [1080p] ATV
  • Тёмная сторона растений. Убийства и хаос / Die Tricks der Pflanzen. Tödliche Fallen (2013) HDTVRip [H.264 / 720p] [Сезон 1, 118 серия]
  • Тёмная сторона растений. Секс и обман / Die Tricks der Pflanzen. Geniale Verführungen (2013) HDTVRip [H.264 / 720p] [Сезон 1, 119 серия]
  • Тарас Асачёв | Тёмная сторона. Палач (2015) [MP3] скачать через торрент бесплатно
  • Специальный репортаж. Тёмная сторона полумесяца (2015.12.17) SATRip скачать через торрент бесплатно
  • Тарас Асачёв | Тёмная сторона (2016) [FB2]
  • Тёмная сторона Луны / Die dunkle Seite des Mondes (2015) WEB-DLRip [H.264 / 720p-LQ]
  • Тёмная сторона Луны / Die dunkle Seite des Mondes (2015) WEB-DLRip


    • Комментарии (0):

      Информация

      Информация

        Посетители, находящиеся в группе Гости, не могут оставлять комментарии в данной новости.

        ↓ Меню




        ↓ Опрос

        Вы добавили сайт в закладки?
        Да
        Нет


        Популярное