.
Авторизация | Регистрация
bitok.xyz
Торрент скачать бесплатно Фильмы торрент скачать Кролик Джоджо / Jojo Rabbit (2019) DVDScr [H.264 / 720p-LQ] [MVO] [PR] торрент скачать бесплатно


    Кролик Джоджо / Jojo Rabbit (2019) DVDScr [H.264 / 720p-LQ] [MVO] [PR] торрент скачать бесплатно

    Дата: 29-01-2020, 05:00 | .torrent скачали: 0

    Кролик Джоджо / Jojo Rabbit (2019) DVDScr [H.264 / 720p-LQ] [MVO] [PR]Производство: Чехия, Новая Зеландия, США/Czech Anglo Productions, Piki Films, Defender Films
    Жанр: Драма, Комедия, Военный
    Режиссер: Тайка Вайтити

    Актеры
    Челси Уинстэнли, Кэртхью Нил, Кеван Ван Томпсон Актеры: Роман Гриффин Дэвис, Томасин МакКензи, Скарлетт Йоханссон, Тайка Вайтити, Сэм Рокуэлл, Ребел Уилсон, Алфи Аллен, Стивен Мерчант, Арчи Йейтс

    Описание

    Неловкий и нескладный 10-летний немецкий мальчик Джоджо, потерявший отца, пытается найти своё место в мире. Ровесники потешаются над ним, а мама считает, что ребёнок сам придумывает себе проблемы. Пытаясь заменить отца, мальчик начинает общаться с воображаемым другом — Адольфом Гитлером, который совсем не похож на знакомого всем фюрера Третьего рейха. Ситуация только осложняется, когда Джоджо обнаруживает, что мама прячет в доме еврейскую девочку.

    Рейтинг MPAA: PG-13 (детям до 13 лет просмотр нежелателен)
    Дата мировой премьеры: 08.09.2019
    Дата российской премьеры: неизвестно
    Продолжительность: 01: 48: 22
    Качество видео: DVDScr
    Перевод: Многоголосый профессиональный, Двухголосый любительский
    Субтитры: Русские, Английские, Украинские
    Видео: AVC/H.264, 1352x720, ~2000 Kbps
    Аудио #1: AC3, 2 ch, 192 Kbps - Русский (MVO - HDrezka Studio)
    Аудио #2: AC3, 2 ch, 256 Kbps - Русский (DVO - Синема УС)
    Аудио #3: AC3, 2 ch, 256 Kbps - Английский
    General
    Unique ID : 166600014503104054735930841963683979669 (0x7D55FEE40314E813AEECF834D9452195)
    Complete name : /media/win/TORRENT/UPLOAD_TORRENTS/Kp0LuK_gIII0gIII0_2019_DVDScr_H264_720p_LQ.mkv
    Format : Matroska
    Format version : Version 4
    File size : 2.05 GiB
    Duration : 1 h 48 min
    Overall bit rate : 2 706 kb/s
    Movie name : Jojo Rabbit-2019
    Encoded date : UTC 2020-01-27 07: 59: 23
    Writing application : mkvmerge v42.0.0 (\'Overtime\') 64-bit
    Writing library : libebml v1.3.10 + libmatroska v1.5.2
    Video
    ID : 1
    Format : AVC
    Format/Info : Advanced Video Codec
    Format profile : Main@L4
    Format settings : CABAC/8 Ref Frames
    Format settings, CABAC : Yes
    Format settings, Reference frames : 8 frames
    Codec ID : V_MPEG4/ISO/AVC
    Duration : 1 h 48 min
    Bit rate : 2 000 kb/s
    Width : 1 352 pixels
    Height : 720 pixels
    Display aspect ratio : 1.85: 1
    Frame rate mode : Constant
    Frame rate : 25.000 FPS
    Color space : YUV
    Chroma subsampling : 4: 2: 0
    Bit depth : 8 bits
    Scan type : Progressive
    Bits/(Pixel*Frame) : 0.082
    Stream size : 1.51 GiB (74%)
    Writing library : x264 core 159 r2991 1771b55
    Encoding settings : cabac=1/ref=8/deblock=1: 0: 0/analyse=0x1: 0x111/me=umh/subme=9/psy=1/psy_rd=1, 00: 0, 00/mixed_ref=1/me_range=24/chroma_me=1/trellis=1/8x8dct=0/cqm=0/deadzone=21, 11/fast_pskip=1/chroma_qp_offset=-2/threads=22/lookahead_threads=2/sliced_threads=0/nr=0/decimate=1/interlaced=0/bluray_compat=0/constrained_intra=0/bframes=6/b_pyramid=2/b_adapt=2/b_bias=0/direct=1/weightb=1/open_gop=0/weightp=2/keyint=250/keyint_min=25/scenecut=40/intra_refresh=0/rc_lookahead=40/rc=2pass/mbtree=1/bitrate=2000/ratetol=1, 0/qcomp=0, 60/qpmin=0/qpmax=69/qpstep=4/cplxblur=20, 0/qblur=0, 5/vbv_maxrate=20000/vbv_bufsize=25000/nal_hrd=none/filler=0/ip_ratio=1, 40/aq=1: 1, 00
    Default : Yes
    Forced : No
    Color range : Limited
    Color primaries : BT.709
    Transfer characteristics : BT.709
    Matrix coefficients : BT.709
    Audio #1
    ID : 2
    Format : AC-3
    Format/Info : Audio Coding 3
    Commercial name : Dolby Digital
    Codec ID : A_AC3
    Duration : 1 h 48 min
    Bit rate mode : Constant
    Bit rate : 192 kb/s
    Channel(s) : 2 channels
    Channel layout : L R
    Sampling rate : 48.0 kHz
    Frame rate : 31.250 FPS (1536 SPF)
    Compression mode : Lossy
    Delay relative to video : -5 ms
    Stream size : 149 MiB (7%)
    Title : MVO - HDrezka Studio
    Language : Russian
    Service kind : Complete Main
    Default : Yes
    Forced : No
    Audio #2
    ID : 3
    Format : AC-3
    Format/Info : Audio Coding 3
    Commercial name : Dolby Digital
    Codec ID : A_AC3
    Duration : 1 h 48 min
    Bit rate mode : Constant
    Bit rate : 256 kb/s
    Channel(s) : 2 channels
    Channel layout : L R
    Sampling rate : 48.0 kHz
    Frame rate : 31.250 FPS (1536 SPF)
    Compression mode : Lossy
    Delay relative to video : -5 ms
    Stream size : 198 MiB (9%)
    Title : DVO -Синема УС
    Language : Russian
    Service kind : Complete Main
    Default : No
    Forced : No
    Audio #3
    ID : 7
    Format : AC-3
    Format/Info : Audio Coding 3
    Commercial name : Dolby Digital
    Codec ID : A_AC3
    Duration : 1 h 48 min
    Bit rate mode : Constant
    Bit rate : 256 kb/s
    Channel(s) : 2 channels
    Channel layout : L R
    Sampling rate : 48.0 kHz
    Frame rate : 31.250 FPS (1536 SPF)
    Compression mode : Lossy
    Delay relative to video : -5 ms
    Stream size : 198 MiB (9%)
    Language : English
    Service kind : Complete Main
    Default : No
    Forced : No
    Text #1
    ID : 4
    Format : UTF-8
    Codec ID : S_TEXT/UTF8
    Codec ID/Info : UTF-8 Plain Text
    Duration : 1 h 41 min
    Bit rate : 60 b/s
    Count of elements : 1355
    Stream size : 44.8 KiB (0%)
    Language : English
    Default : Yes
    Forced : No
    Text #2
    ID : 5
    Format : UTF-8
    Codec ID : S_TEXT/UTF8
    Codec ID/Info : UTF-8 Plain Text
    Duration : 1 h 41 min
    Bit rate : 98 b/s
    Count of elements : 1361
    Stream size : 73.1 KiB (0%)
    Language : Russian
    Default : No
    Forced : No
    Text #3
    ID : 6
    Format : UTF-8
    Codec ID : S_TEXT/UTF8
    Codec ID/Info : UTF-8 Plain Text
    Duration : 1 h 41 min
    Bit rate : 97 b/s
    Count of elements : 1361
    Stream size : 72.1 KiB (0%)
    Language : Ukrainian
    Default : No
    Forced : No


    Онлайн видео Кролик Джоджо



    Кролик Джоджо / Jojo Rabbit (2019) DVDScr [H.264 / 720p-LQ] [MVO] [PR] торрент скачать бесплатно
    Рейтинг →
     (голосов: 1, оценка 4/5, голосовать можно 1 раз )

    Другие торренты по теме:

  • Кролик Джоджо / Jojo Rabbit (2019) DVDScr [MVO] [AD]
  • Кролик Джоджо / Jojo Rabbit (2019) DVDScr [MVO]
  • Кролик Джоджо / Jojo Rabbit (2019) DVDScr [H.264 / 720p-LQ] [DVO]
  • Кролик Джоджо / Jojo Rabbit (2019) DVDScr [H.264] [MP4|1280x720] [DVO] [PR]
  • Кролик Джоджо / Jojo Rabbit (2019) AC3 5.1 HDRezka studio [hand made]
  • Кролик Джоджо / Jojo Rabbit (2019) WEB-DL [H.264 / 720p] [MVO]
  • Кролик Джоджо / Jojo Rabbit (2019) WEB-DLRip [H.265] [10-bit]
  • Кролик Джоджо / Jojo Rabbit (2019) WEB-DL [H.264 / 1080p] [MVO]


    • Комментарии (0):

      Информация

      Информация

        Посетители, находящиеся в группе Гости, не могут оставлять комментарии в данной новости.

        ↓ Меню




        ↓ Опрос

        Вы добавили сайт в закладки?
        Да
        Нет


        Популярное