.
Авторизация | Регистрация
bitok.xyz
Торрент скачать бесплатно Фильмы торрент скачать Ford против Ferrari / Ford v Ferrari (2019) WEB-DL [H.264 / 720p] [MVO] торрент скачать бесплатно


    Ford против Ferrari / Ford v Ferrari (2019) WEB-DL [H.264 / 720p] [MVO] торрент скачать бесплатно

    Дата: 29-01-2020, 05:00 | .torrent скачали: 0

    Ford против Ferrari / Ford v Ferrari (2019) WEB-DL [H.264 / 720p] [MVO]Производство: США, Франция, 20th Century Fox Film Corporation, ...
    Жанр: Биография, Спорт, Драма, Боевик
    Режиссер: Джеймс Мэнголд

    Актеры
    Кристиан Бэйл, Мэтт Дэймон, Катрина Балф, Трэйси Леттс, Джон Бернтал, Ноа Джуп, Джош Лукас, Ремо Джироне, Рэй Маккиннон, Джей Джей Филд

    Описание

    Фильм рассказывает о взаимоотношениях американского автомобильного конструктора Кэрролла Шелби и отважного британского гонщика Кена Майлза, которые вместе бросили вызов корпорациям и собственным демонам, чтобы создать абсолютно новый спорткар, который смог конкурировать с Ferrari на чемпионате мира, прошедшем во Франции в середине 1960-х.

    Возраст: 16+ (зрителям, достигшим 16 лет)
    Рейтинг MPAA: PG-13 (детям до 13 лет просмотр нежелателен)
    Дата мировой премьеры: 30 августа 2019
    Дата российской премьеры: 14 ноября 2019, Двадцатый Век Фокс СНГ

    Продолжительность: 02: 32: 33
    Качество видео: WEB-DL 720p(AMZN)
    Перевод : Многоголосый профессиональный(HDRezka Studio)
    Субтитры: Русские (Forced, Full), Английские (Full, SDH)
    Видео: AVC/H.264, 1248x520, ~4345 Кbps, 23.976 fps
    Аудио 1: AC3, 6 ch, 448 Kbps - Русский
    Аудио 2 : AC3, 2 ch, 192 Kbps - Украинский (DUB/Line)
    Аудио 3 : E-AC3, 6 ch, 640 Kbps - АнглийскийОбщее
    Уникальный идентификатор : 312028353889251249934541626660186135781 (0xEABE799B4257BE8319E4F896ECBE9CE5)
    Полное имя : Ford против Ferrari.2019.AMZN.WEB-DL.720p.W.mkv
    Формат : Matroska
    Версия формата : Version 4
    Размер файла : 6, 00 Гбайт
    Продолжительность : 2 ч. 32 м.
    Общий поток : 5628 Кбит/сек
    Название фильма : Ford против Ferrari.2019.AMZN.WEB-DL.720p.W
    Дата кодирования : UTC 2020-01-28 13: 44: 58
    Программа кодирования : mkvmerge v23.0.0 (\'The Bride Said No\') 64-bit
    Библиотека кодирования : libebml v1.3.6 + libmatroska v1.4.9
    Видео
    Идентификатор : 1
    Формат : AVC
    Формат/Информация : Advanced Video Codec
    Профиль формата : High@L3.1
    Настройки формата : CABAC/4 Ref Frames
    Параметр CABAC формата : Да
    Параметр RefFrames формата : 4 кадра
    Идентификатор кодека : V_MPEG4/ISO/AVC
    Продолжительность : 2 ч. 32 м.
    Вид битрейта : Постоянный
    Битрейт : 4345 Кбит/сек
    Номинальный битрейт : 6000 Кбит/сек
    Ширина : 1248 пикселей
    Высота : 520 пикселей
    Соотношение сторон : 2, 40: 1
    Режим частоты кадров : Постоянный
    Частота кадров : 23, 976 (24000/1001) кадра/сек
    Цветовое пространство : YUV
    Субдискретизация насыщенности : 4: 2: 0
    Битовая глубина : 8 бит
    Тип развёртки : Прогрессивная
    Бит/(Пиксели*Кадры) : 0.279
    Размер потока : 4, 63 Гбайт (77%)
    Язык : English
    Default : Да
    Forced : Нет
    Цветовой диапазон : Limited
    Основные цвета : BT.709
    Характеристики трансфера : BT.709
    Коэффициенты матрицы : BT.709
    Аудио #1
    Идентификатор : 2
    Формат : AC-3
    Формат/Информация : Audio Coding 3
    Коммерческое название : Dolby Digital
    Идентификатор кодека : A_AC3
    Продолжительность : 2 ч. 32 м.
    Вид битрейта : Постоянный
    Битрейт : 448 Кбит/сек
    Каналы : 6 каналов
    ChannelLayout : L R C LFE Ls Rs
    Частота : 48, 0 КГц
    Частота кадров : 31, 250 кадров/сек (1536 SPF)
    Метод сжатия : С потерями
    Размер потока : 489 Мбайт (8%)
    Заголовок : MVO (HDrezka Studio)
    Язык : Russian
    ServiceKind/String : Complete Main
    Default : Да
    Forced : Нет
    Аудио #2
    Идентификатор : 3
    Формат : AC-3
    Формат/Информация : Audio Coding 3
    Коммерческое название : Dolby Digital
    Идентификатор кодека : A_AC3
    Продолжительность : 2 ч. 32 м.
    Вид битрейта : Постоянный
    Битрейт : 192 Кбит/сек
    Каналы : 2 канала
    ChannelLayout : L R
    Частота : 48, 0 КГц
    Частота кадров : 31, 250 кадров/сек (1536 SPF)
    Метод сжатия : С потерями
    Размер потока : 210 Мбайт (3%)
    Заголовок : DUB - Line
    Язык : Ukrainian
    ServiceKind/String : Complete Main
    Default : Нет
    Forced : Нет
    Аудио #3
    Идентификатор : 4
    Формат : E-AC-3
    Формат/Информация : Enhanced AC-3
    Коммерческое название : Dolby Digital Plus
    Идентификатор кодека : A_EAC3
    Продолжительность : 2 ч. 32 м.
    Вид битрейта : Постоянный
    Битрейт : 640 Кбит/сек
    Каналы : 6 каналов
    ChannelLayout : L R C LFE Ls Rs
    Частота : 48, 0 КГц
    Частота кадров : 31, 250 кадров/сек (1536 SPF)
    Метод сжатия : С потерями
    Размер потока : 698 Мбайт (11%)
    Язык : English
    ServiceKind/String : Complete Main
    Default : Нет
    Forced : Нет
    Текст #1
    Идентификатор : 5
    Формат : UTF-8
    Идентификатор кодека : S_TEXT/UTF8
    Идентификатор кодека/Информация : UTF-8 Plain Text
    Продолжительность : 1 ч. 57 м.
    Битрейт : 1 бит/сек
    ElementCount : 14
    Размер потока : 1, 06 Кбайт (0%)
    Заголовок : Forced
    Язык : Russian
    Default : Да
    Forced : Нет
    Текст #2
    Идентификатор : 6
    Формат : UTF-8
    Идентификатор кодека : S_TEXT/UTF8
    Идентификатор кодека/Информация : UTF-8 Plain Text
    Продолжительность : 2 ч. 26 м.
    Битрейт : 82 бит/сек
    ElementCount : 1652
    Размер потока : 87, 8 Кбайт (0%)
    Заголовок : Full (blindAvocado)
    Язык : Russian
    Default : Нет
    Forced : Нет
    Текст #3
    Идентификатор : 7
    Формат : UTF-8
    Идентификатор кодека : S_TEXT/UTF8
    Идентификатор кодека/Информация : UTF-8 Plain Text
    Продолжительность : 2 ч. 31 м.
    Битрейт : 59 бит/сек
    ElementCount : 2315
    Размер потока : 66, 1 Кбайт (0%)
    Заголовок : Full
    Язык : English
    Default : Нет
    Forced : Нет
    Текст #4
    Идентификатор : 8
    Формат : UTF-8
    Идентификатор кодека : S_TEXT/UTF8
    Идентификатор кодека/Информация : UTF-8 Plain Text
    Продолжительность : 2 ч. 32 м.
    Битрейт : 65 бит/сек
    ElementCount : 2613
    Размер потока : 73, 4 Кбайт (0%)
    Заголовок : SDH
    Язык : English
    Default : Нет
    Forced : Нет
    Меню
    00: 00: 00.000 : en: Chapter 01
    00: 04: 44.617 : en: Chapter 02
    00: 07: 31.533 : en: Chapter 03
    00: 10: 01.807 : en: Chapter 04
    00: 15: 38.309 : en: Chapter 05
    00: 20: 14.167 : en: Chapter 06
    00: 21: 38.792 : en: Chapter 07
    00: 25: 59.886 : en: Chapter 08
    00: 31: 56.867 : en: Chapter 09
    00: 34: 08.748 : en: Chapter 10
    00: 39: 12.258 : en: Chapter 11
    00: 42: 05.888 : en: Chapter 12
    00: 45: 55.993 : en: Chapter 13
    00: 48: 37.654 : en: Chapter 14
    00: 51: 21.067 : en: Chapter 15
    00: 55: 02.663 : en: Chapter 16
    00: 57: 49.788 : en: Chapter 17
    01: 00: 26.027 : en: Chapter 18
    01: 06: 32.476 : en: Chapter 19
    01: 11: 58.802 : en: Chapter 20
    01: 16: 12.764 : en: Chapter 21
    01: 19: 29.502 : en: Chapter 22
    01: 24: 17.748 : en: Chapter 23
    01: 29: 23.969 : en: Chapter 24
    01: 33: 15.158 : en: Chapter 25
    01: 38: 10.285 : en: Chapter 26
    01: 40: 56.451 : en: Chapter 27
    01: 43: 22.305 : en: Chapter 28
    01: 45: 48.200 : en: Chapter 29
    01: 50: 37.947 : en: Chapter 30
    01: 53: 37.333 : en: Chapter 31
    01: 57: 46.581 : en: Chapter 32
    02: 00: 15.645 : en: Chapter 33
    02: 05: 21.866 : en: Chapter 34
    02: 09: 17.350 : en: Chapter 35
    02: 12: 00.471 : en: Chapter 36
    02: 15: 25.383 : en: Chapter 37
    02: 18: 22.101 : en: Chapter 38
    02: 20: 45.409 : en: Chapter 39
    02: 26: 26.582 : en: Chapter 40

    Скриншоты для ознакомления



    Все одноименные релизы в Клубе
    Время раздачи: 24/7 (до появления первых 3-5 скачавших)

    Онлайн видео Ford против Ferrari



    Ford против Ferrari / Ford v Ferrari (2019) WEB-DL [H.264 / 720p] [MVO] торрент скачать бесплатно
    Рейтинг →
     (голосов: 1, оценка 4/5, голосовать можно 1 раз )

    Другие торренты по теме:

  • Ford против Ferrari / Ford v Ferrari (2019) WEBRip [Line, AD]
  • Ford против Ferrari / Ford v Ferrari (2019) WEBRip [H.264 / 1080p-LQ] [Line, AD]
  • Ford против Ferrari / Ford v Ferrari (2019) WEBRip [H.264] [Line, AD]
  • Ford против Ferrari / Ford v Ferrari (2019) WEBRip [H.264 / 720p-LQ] [Line, AD]
  • Ford против Ferrari / Ford v Ferrari (2019) WEBRip [EN / RU, EN Sub]
  • Ford против Ferrari / Ford v Ferrari (2019) WEBRip [UKR] [Line]
  • Ford против Ferrari / Ford v Ferrari (2019) WEBRip [H.264] [UKR] [Line]
  • Ford против Ferrari / Ford v Ferrari (2019) WEBRip [H.264] [EN / RU, EN Sub]


    • Комментарии (0):

      Информация

      Информация

        Посетители, находящиеся в группе Гости, не могут оставлять комментарии в данной новости.

        ↓ Меню




        ↓ Опрос

        Вы добавили сайт в закладки?
        Да
        Нет


        Популярное