.
Авторизация | Регистрация
bitok.xyz
Торрент скачать бесплатно Фильмы торрент скачать Хороший лжец / The Good Liar (2019) HDRip [AVO] торрент скачать бесплатно


    Хороший лжец / The Good Liar (2019) HDRip [AVO] торрент скачать бесплатно

    Дата: 29-01-2020, 05:00 | .torrent скачали: 2

    Хороший лжец / The Good Liar (2019) HDRip [AVO]Производство: Великобритания, США, Германия/BRON Studios, Creative Wealth Media Finance, New Line Cinema
    Жанр: Драма, детектив
    Режиссер: Билл Кондон

    Актеры
    Хелен Миррен, Иэн Маккеллен, Рассел Тови, Джим Картер, Марк Льюис Джонс, Лори Дэвидсон, Фил Данстер, Лусиан Мсамати, Йоуханнес Хёйкьюр Йоуханнессон, Тунджи Касим

    Описание

    Профессиональный мошенник Рой Кортни едва верит своей удаче, когда знакомится в сети с богатой вдовой Бетти МакЛиш. Очаровав вдову и получив доступ ко всем ее ресурсам, Рой ловит себя на том, что она ему небезразлична.

    Возраст: 18+ (зрителям, достигшим 18 лет. запрещено для детей)
    Рейтинг MPAA: R (лицам до 17 лет обязательно присутствие взрослого)
    Премьера (мир): 8 ноября 2019
    Премьера (РФ): 14 ноября 2019, Каро-Премьер

    Продолжительность: 01: 49: 35
    Качество видео: HDRip
    Перевод: Авторский (Вячеслав Замез aka zamez)
    Субтитры: Отсутствуют
    Видео: Xvid, 688x288, ~755 kbps
    Аудио: MP3, 2 ch, 128 kbps - Русский (AVO)
    Полное имя : D: Хороший лжец.(2019).HDRip.700.mb.avi
    Формат : AVI
    Формат/Информация : Audio Video Interleave
    Размер файла : 700 Мбайт
    Продолжительность : 1 ч. 49 м.
    Общий поток : 893 Кбит/сек
    Программа кодирования : VirtualDubMod 1.5.10.3 | (build 2550/release)
    Библиотека кодирования : VirtualDubMod build 2550/release
    Видео
    Идентификатор : 0
    Формат : MPEG-4 Visual
    Профиль формата : Advanced Simple@L5
    Параметр BVOP формата : 1
    Параметр QPel формата : Нет
    Параметр GMC формата : Без точки перехода
    Параметр матрицы формата : Выборочная
    Идентификатор кодека : XVID
    Идентификатор кодека/Подсказка : XviD
    Продолжительность : 1 ч. 49 м.
    Битрейт : 755 Кбит/сек
    Ширина : 688 пикселей
    Высота : 288 пикселей
    Соотношение сторон : 2, 40: 1
    Частота кадров : 23, 976 кадра/сек
    Цветовое пространство : YUV
    Субдискретизация насыщенности : 4: 2: 0
    Битовая глубина : 8 бит
    Тип развёртки : Прогрессивная
    Метод сжатия : С потерями
    Бит/(Пиксели*Кадры) : 0.159
    Размер потока : 592 Мбайт (85%)
    Библиотека кодирования : XviD 73
    Аудио
    Идентификатор : 1
    Формат : MPEG Audio
    Версия формата : Version 1
    Профиль формата : Layer 3
    Идентификатор кодека : 55
    Идентификатор кодека/Подсказка : MP3
    Продолжительность : 1 ч. 49 м.
    Вид битрейта : Постоянный
    Битрейт : 128 Кбит/сек
    Каналы : 2 канала
    Частота : 48, 0 КГц
    Метод сжатия : С потерями
    Размер потока : 100 Мбайт (14%)
    Выравнивание : Соединение по промежуткам
    Продолжительность промежутка : 42 мс. (1, 00 видеокадр)
    Время предзагрузки промежутка : 504 мс.
    Библиотека кодирования : LAME3.99r
    Настройки программы : -m s -V 4 -q 2 -lowpass 17 -b 128

    Скриншоты для ознакомления



    Все одноименные релизы в Клубе
    Время раздачи: с 08.00 до 24.00 (до появления первых 3-5 скачавших)

    Онлайн видео Хороший лжец



    Хороший лжец / The Good Liar (2019) HDRip [AVO] торрент скачать бесплатно
    Рейтинг →
     (голосов: 1, оценка 4/5, голосовать можно 1 раз )

    Другие торренты по теме:

  • Хороший лжец / The Good Liar (2019) BDRip [H.264 / 1080p] [AVO] [PR]
  • Хороший лжец / The Good Liar (2019) BDRip [H.264 / 1080p] [PR]
  • Хороший лжец / The Good Liar (2019) BDRip [H.265 / 720p] [10-bit] [PR]
  • Хороший лжец / The Good Liar (2019) BDRip [H.265] [10-bit]
  • Хороший лжец / The Good Liar (2019) BDRip [H.264]
  • Хороший лжец / The Good Liar (2019) BDRemux [H.264 / 1080p]
  • Хороший лжец / The Good Liar (2019) BDRip [H.264 / 1080p]
  • Хороший лжец / The Good Liar (2019) BDRip [H.264 / 720p]


    • Комментарии (0):

      Информация

      Информация

        Посетители, находящиеся в группе Гости, не могут оставлять комментарии в данной новости.

        ↓ Меню




        ↓ Опрос

        Вы добавили сайт в закладки?
        Да
        Нет


        Популярное