.
Авторизация | Регистрация
bitok.xyz
Торрент скачать бесплатно Фильмы торрент скачать Ford против Ferrari / Ford v Ferrari (2019) WEB-DLRip [H.265] [10-bit] торрент скачать бесплатно

    Ford против Ferrari / Ford v Ferrari (2019) WEB-DLRip [H.265] [10-bit] торрент скачать бесплатно

    Дата: 29-01-2020, 05:00 | .torrent скачали: 0

    Ford против Ferrari / Ford v Ferrari (2019) WEB-DLRip [H.265] [10-bit]Производство: США, Франция, 20th Century Fox Film Corporation, ...
    Жанр: Биография, Спорт, Драма, Боевик
    Режиссер: Джеймс Мэнголд

    Актеры
    Кристиан Бэйл, Мэтт Дэймон, Катрина Балф, Трэйси Леттс, Джон Бернтал, Ноа Джуп, Джош Лукас, Ремо Джироне, Рэй Маккиннон, Джей Джей Филд

    Описание

    Фильм рассказывает о взаимоотношениях американского автомобильного конструктора Кэрролла Шелби и отважного британского гонщика Кена Майлза, которые вместе бросили вызов корпорациям и собственным демонам, чтобы создать абсолютно новый спорткар, который смог конкурировать с Ferrari на чемпионате мира, прошедшем во Франции в середине 1960-х.

    Возраст: 16+ (зрителям, достигшим 16 лет)
    Рейтинг MPAA: PG-13 (детям до 13 лет просмотр нежелателен)
    Дата мировой премьеры: 30 августа 2019
    Дата российской премьеры: 14 ноября 2019, Двадцатый Век Фокс СНГ

    Продолжительность: 02: 32: 33
    Качество видео: WEB-DLRip
    Перевод : Профессиональный многоголосый (HDRezka Studio)
    Субтитры: Русские (Forced, Full), Английские (Full)
    Видео: HEVC/H.265, 1024x428, 1961 Kbps
    Аудио 1 : AC3, 2 ch, 160 Kbps | Русский
    Аудио 2 : AC3, 2 ch, 160 Kbps | АнглийскийОбщее
    Уникальный идентификатор : 331150720519555526975166953670812973416 (0xF9214F1275566969E7856D4AF85D3968)
    Полное имя : Ford.v.Ferrari.2019.WEB-DLRip.HEVC.mkv
    Формат : Matroska
    Версия формата : Version 4/Version 2
    Размер файла : 2, 48 Гбайт
    Продолжительность : 2 ч. 32 м.
    Общий поток : 2328 Кбит/сек
    Название фильма : Ford.v.Ferrari.2019.1080p.WEB-DL.DD5.1.H264-FGT
    Программа кодирования : XviD4PSP 8.0.91
    Библиотека кодирования : Lavf58.20.100
    ErrorDetectionType : Per level 1
    ENCODING_INFO : MATROSKA, WEBM MKV 1024 x 576
    Видео
    Идентификатор : 1
    Формат : HEVC
    Формат/Информация : High Efficiency Video Coding
    Профиль формата : Main10@L4.1@High
    Идентификатор кодека : V_MPEGH/ISO/HEVC
    Продолжительность : 2 ч. 32 м.
    Битрейт : 1961 Кбит/сек
    Ширина : 1024 пикселя
    Высота : 428 пикселей
    Соотношение сторон : 2, 40: 1
    Режим частоты кадров : Постоянный
    Частота кадров : 23, 976 (24000/1001) кадра/сек
    Цветовое пространство : YUV
    Субдискретизация насыщенности : 4: 2: 0
    Битовая глубина : 10 бит
    Бит/(Пиксели*Кадры) : 0.187
    Размер потока : 2, 09 Гбайт (84%)
    Язык : English
    Default : Да
    Forced : Нет
    Цветовой диапазон : Limited
    Основные цвета : BT.709
    Характеристики трансфера : BT.709
    Коэффициенты матрицы : BT.709
    ENCODING_INFO : H264 HEVC NVENC VBR 2000kbps HQ
    Аудио #1
    Идентификатор : 2
    Формат : AC-3
    Формат/Информация : Audio Coding 3
    Параметр Endianness формата : Big
    Идентификатор кодека : A_AC3
    Продолжительность : 2 ч. 32 м.
    Вид битрейта : Постоянный
    Битрейт : 160 Кбит/сек
    Каналы : 2 канала
    Расположение каналов : Front: L R
    Частота : 48, 0 КГц
    Частота кадров : 31, 250 кадров/сек (1536 SPF)
    Битовая глубина : 16 бит
    Метод сжатия : С потерями
    Размер потока : 175 Мбайт (7%)
    Заголовок : MVO | HDRezka Studio
    Язык : Russian
    ServiceKind/String : Complete Main
    Default : Да
    Forced : Нет
    ENCODING_INFO : AC3 AC3 CBR 160kbps
    Аудио #2
    Идентификатор : 3
    Формат : AC-3
    Формат/Информация : Audio Coding 3
    Параметр Endianness формата : Big
    Идентификатор кодека : A_AC3
    Продолжительность : 2 ч. 32 м.
    Вид битрейта : Постоянный
    Битрейт : 160 Кбит/сек
    Каналы : 2 канала
    Расположение каналов : Front: L R
    Частота : 48, 0 КГц
    Частота кадров : 31, 250 кадров/сек (1536 SPF)
    Битовая глубина : 16 бит
    Метод сжатия : С потерями
    Размер потока : 175 Мбайт (7%)
    Язык : English
    ServiceKind/String : Complete Main
    Default : Нет
    Forced : Нет
    ENCODING_INFO : AC3 AC3 CBR 160kbps
    Текст #1
    Идентификатор : 4
    Формат : UTF-8
    Идентификатор кодека : S_TEXT/UTF8
    Идентификатор кодека/Информация : UTF-8 Plain Text
    Заголовок : Forced
    Язык : Russian
    Default : Да
    Forced : Нет
    ENCODING_INFO : SUBRIP COPY Быстрое
    Текст #2
    Идентификатор : 5
    Формат : UTF-8
    Идентификатор кодека : S_TEXT/UTF8
    Идентификатор кодека/Информация : UTF-8 Plain Text
    Заголовок : Full
    Язык : Russian
    Default : Нет
    Forced : Нет
    ENCODING_INFO : SUBRIP COPY Быстрое
    Текст #3
    Идентификатор : 6
    Формат : UTF-8
    Идентификатор кодека : S_TEXT/UTF8
    Идентификатор кодека/Информация : UTF-8 Plain Text
    Язык : English
    Default : Нет
    Forced : Нет
    ENCODING_INFO : SUBRIP COPY Быстрое
    Меню
    00: 00: 00.000 : : Chapter 01
    00: 04: 44.617 : : Chapter 02
    00: 07: 31.533 : : Chapter 03
    00: 10: 01.807 : : Chapter 04
    00: 15: 38.309 : : Chapter 05
    00: 20: 14.167 : : Chapter 06
    00: 21: 38.792 : : Chapter 07
    00: 25: 59.886 : : Chapter 08
    00: 31: 56.867 : : Chapter 09
    00: 34: 08.748 : : Chapter 10
    00: 39: 12.258 : : Chapter 11
    00: 42: 05.888 : : Chapter 12
    00: 45: 55.993 : : Chapter 13
    00: 48: 37.654 : : Chapter 14
    00: 51: 21.067 : : Chapter 15
    00: 55: 02.663 : : Chapter 16
    00: 57: 49.788 : : Chapter 17
    01: 00: 26.027 : : Chapter 18
    01: 06: 32.476 : : Chapter 19
    01: 11: 58.802 : : Chapter 20
    01: 16: 12.764 : : Chapter 21
    01: 19: 29.502 : : Chapter 22
    01: 24: 17.748 : : Chapter 23
    01: 29: 23.969 : : Chapter 24
    01: 33: 15.158 : : Chapter 25
    01: 38: 10.285 : : Chapter 26
    01: 40: 56.451 : : Chapter 27
    01: 43: 22.305 : : Chapter 28
    01: 45: 48.200 : : Chapter 29
    01: 50: 37.947 : : Chapter 30
    01: 53: 37.333 : : Chapter 31
    01: 57: 46.581 : : Chapter 32
    02: 00: 15.645 : : Chapter 33
    02: 05: 21.866 : : Chapter 34
    02: 09: 17.350 : : Chapter 35
    02: 12: 00.471 : : Chapter 36
    02: 15: 25.383 : : Chapter 37
    02: 18: 22.101 : : Chapter 38
    02: 20: 45.409 : : Chapter 39
    02: 26: 26.582 : : Chapter 40

    Скриншоты для ознакомления



    Все одноименные релизы в Клубе
    Время раздачи: 24/7 (до появления первых 3-5 скачавших)

    Онлайн видео Ford против Ferrari



    Ford против Ferrari / Ford v Ferrari (2019) WEB-DLRip [H.265] [10-bit] торрент скачать бесплатно
    Рейтинг →
     (голосов: 1, оценка 5/5, голосовать можно 1 раз )

    Другие торренты по теме:

  • Ford против Ferrari / Ford v Ferrari (2019) WEBRip [Line, AD]
  • Ford против Ferrari / Ford v Ferrari (2019) WEBRip [H.264 / 1080p-LQ] [Line, AD]
  • Ford против Ferrari / Ford v Ferrari (2019) WEBRip [H.264] [Line, AD]
  • Ford против Ferrari / Ford v Ferrari (2019) WEBRip [H.264 / 720p-LQ] [Line, AD]
  • Ford против Ferrari / Ford v Ferrari (2019) WEBRip [EN / RU, EN Sub]
  • Ford против Ferrari / Ford v Ferrari (2019) WEBRip [UKR] [Line]
  • Ford против Ferrari / Ford v Ferrari (2019) WEBRip [H.264] [UKR] [Line]
  • Ford против Ferrari / Ford v Ferrari (2019) WEBRip [H.264] [EN / RU, EN Sub]


    • Комментарии (0):

      Информация

      Информация

        Посетители, находящиеся в группе Гости, не могут оставлять комментарии в данной новости.

        ↓ Меню




        ↓ Опрос

        Вы добавили сайт в закладки?
        Да
        Нет


        Популярное