.
Авторизация | Регистрация
bitok.xyz
Торрент скачать бесплатно Фильмы торрент скачать Дело Коллини / Der Fall Collini (2019) BDRip [H.264 / 720p] торрент скачать бесплатно


    Дело Коллини / Der Fall Collini (2019) BDRip [H.264 / 720p] торрент скачать бесплатно

    Дата: 29-01-2020, 05:00 | .torrent скачали: 0

    Дело Коллини / Der Fall Collini (2019) BDRip [H.264 / 720p]Производство: Германия, Constantin Film, Mythos Film, SevenPictures Film
    Жанр: Триллер, драма, криминал
    Режиссер: Марко Кройцпайнтнер
    Продюсер: Марсель Хартгес, Мартин Московиц, Кристоф Мюллер

    Актеры
    Элиас ЭмБарек, Хайнер Лаутербах, Александра Мария Лара, Франко Неро, Манфред Цапатка, Яннис Нивёнер, Райнер Бок, Катрин Штрибек, Пиа Стутценштайн, Петер Прагер

    Описание
    Каспару Лайнену предстоит расследовать запутанное дело непримечательного механика, итальянца Фабрицио Коллини, который на первый взгляд безо всяких мотивов убил немецкого бизнесмена Ханса Майера, после чего сам сдался полиции. Положение вещей осложняется не только молчанием Коллини и более опытным адвокатом, претендующим на пост главного героя, но и его личным причастием к делу: внучка жертвы Йоханна была его юношеской любовью. Однако Лайнену случайно удаётся найти зацепку, благодаря которой он понимает, что столкнулся с крупнейшим судебным скандалом Германии.

    Возраст: 16+ (зрителям, достигшим 16 лет)
    Дата мировой премьеры: 18 апреля 2019
    Дата российской премьеры: 1 января 2020, Кинолэнд
    Релиз от: NNMClub
    Продолжительность: 02: 02: 46
    Качество видео: BDRip 720p
    Перевод: Дублированный(iTunes)
    Субтитры: Русские, Английские
    Видео: AVC/H.264, 1280x536, 3500 Kbps, 23.976 fps
    Аудио 1 : AC-3, 6 ch, 384 Kbps | Русский
    Аудио 2 : AC-3, 6 ch, 640 Kbps | Немецкий
    General
    Unique ID : 273109839335859811280975839177129882943 (0xCD770AB154FF7DDE592DC5FFA3FC753F)
    Complete name : /Users/imac/HandBrake/The.Collini.Case.BDRip.720p.NNMClub.pk.mkv
    Format : Matroska
    Format version : Version 4
    File size : 3.87 GiB
    Duration : 2h 2mn
    Overall bit rate : 4 513 Kbps
    Movie name : The Collini Case BDRip 720p pk
    Encoded date : UTC 2020-01-27 22: 49: 12
    Writing application : mkvmerge v43.0.0 (\'The Quartermaster\') 64-bit
    Writing library : libebml v1.3.10 + libmatroska v1.5.2
    Video
    ID : 1
    Format : AVC
    Format/Info : Advanced Video Codec
    Format profile : High@L4.1
    Format settings : CABAC/12 Ref Frames
    Format settings, CABAC : Yes
    Format settings, ReFrames : 12 frames
    Codec ID : V_MPEG4/ISO/AVC
    Duration : 2h 2mn
    Bit rate : 3 500 Kbps
    Width : 1 280 pixels
    Height : 536 pixels
    Display aspect ratio : 2.40: 1
    Frame rate mode : Constant
    Frame rate : 23.976 (24000/1001) fps
    Color space : YUV
    Chroma subsampling : 4: 2: 0
    Bit depth : 8 bits
    Scan type : Progressive
    Bits/(Pixel*Frame) : 0.213
    Stream size : 2.99 GiB (77%)
    Writing library : x264 core 157 r2935 545de2f
    Encoding settings : cabac=1/ref=12/deblock=1: -3: -3/analyse=0x3: 0x113/me=umh/subme=9/psy=1/psy_rd=1.00: 0.00/mixed_ref=1/me_range=32/chroma_me=1/trellis=2/8x8dct=1/cqm=0/deadzone=21, 11/fast_pskip=0/chroma_qp_offset=-2/threads=17/lookahead_threads=4/sliced_threads=0/nr=0/decimate=0/interlaced=0/bluray_compat=0/constrained_intra=0/bframes=12/b_pyramid=2/b_adapt=2/b_bias=0/direct=1/weightb=0/open_gop=0/weightp=2/keyint=240/keyint_min=24/scenecut=40/intra_refresh=0/rc_lookahead=70/rc=2pass/mbtree=0/bitrate=3500/ratetol=1.0/qcomp=0.65/qpmin=0/qpmax=69/qpstep=4/cplxblur=20.0/qblur=0.5/vbv_maxrate=50000/vbv_bufsize=62000/nal_hrd=none/filler=0/ip_ratio=1.40/pb_ratio=1.30/aq=1: 1.10
    Language : German
    Default : Yes
    Forced : No
    Color range : Limited
    Color primaries : BT.709
    Transfer characteristics : BT.709
    Matrix coefficients : BT.709
    Audio #1
    ID : 2
    Format : AC-3
    Format/Info : Audio Coding 3
    Commercial name : Dolby Digital
    Codec ID : A_AC3
    Duration : 2h 2mn
    Bit rate mode : Constant
    Bit rate : 384 Kbps
    Channel(s) : 6 channels
    Channel layout : L R C LFE Ls Rs
    Sampling rate : 48.0 KHz
    Frame rate : 31.250 fps (1536 SPF)
    Compression mode : Lossy
    Stream size : 337 MiB (9%)
    Title : Russian Dub iTunes
    Language : Russian
    Service kind : Complete Main
    Default : Yes
    Forced : No
    Audio #2
    ID : 3
    Format : AC-3
    Format/Info : Audio Coding 3
    Commercial name : Dolby Digital
    Codec ID : A_AC3
    Duration : 2h 2mn
    Bit rate mode : Constant
    Bit rate : 640 Kbps
    Channel(s) : 6 channels
    Channel layout : L R C LFE Ls Rs
    Sampling rate : 48.0 KHz
    Frame rate : 31.250 fps (1536 SPF)
    Compression mode : Lossy
    Stream size : 562 MiB (14%)
    Title : German Original
    Language : German
    Service kind : Complete Main
    Default : No
    Forced : No
    Text #1
    ID : 4
    Format : UTF-8
    Codec ID : S_TEXT/UTF8
    Codec ID/Info : UTF-8 Plain Text
    Duration : 1h 56mn
    Bit rate : 72 bps
    Count of elements : 966
    Stream size : 61.4 KiB (0%)
    Title : Russian full Enigma
    Language : Russian
    Default : No
    Forced : No
    Text #2
    ID : 5
    Format : UTF-8
    Codec ID : S_TEXT/UTF8
    Codec ID/Info : UTF-8 Plain Text
    Duration : 1h 54mn
    Bit rate : 42 bps
    Count of elements : 955
    Stream size : 35.4 KiB (0%)
    Title : English full
    Language : English
    Default : No
    Forced : No
    Menu
    00: 00: 00.000 : en: 00: 00: 00.000
    00: 05: 11.250 : en: 00: 05: 11.250
    00: 13: 40.417 : en: 00: 13: 40.417
    00: 20: 14.917 : en: 00: 20: 14.917
    00: 26: 18.583 : en: 00: 26: 18.583
    00: 33: 56.875 : en: 00: 33: 56.875
    00: 40: 25.000 : en: 00: 40: 25.000
    00: 48: 11.583 : en: 00: 48: 11.583
    00: 58: 25.208 : en: 00: 58: 25.208
    01: 05: 15.792 : en: 01: 05: 15.792
    01: 10: 55.500 : en: 01: 10: 55.500
    01: 20: 01.458 : en: 01: 20: 01.458
    01: 28: 08.667 : en: 01: 28: 08.667
    01: 35: 51.208 : en: 01: 35: 51.208
    01: 43: 44.958 : en: 01: 43: 44.958
    01: 50: 53.292 : en: 01: 50: 53.292
    01: 56: 29.542 : en: 01: 56: 29.542
    00: 10: 00.000 : en: 00: 10: 00.000

    x264 info: frame I: 1367 Avg QP: 12.29 size: 113220
    x264 info: frame P: 39536 Avg QP: 14.63 size: 36739
    x264 info: frame B: 135734 Avg QP: 15.26 size: 11814
    x264 info: consecutive B-frames: 2.3% 3.3% 7.6% 34.9% 11.9% 18.6% 6.2% 5.6% 3.0% 2.2% 1.4% 1.4% 1.6%
    x264 info: mb I I16..4: 7.5% 77.7% 14.8%
    x264 info: mb P I16..4: 1.4% 9.4% 0.9% P16..4: 36.0% 29.1% 17.4% 0.0% 0.0% skip: 5.7%
    x264 info: mb B I16..4: 0.2% 0.6% 0.0% B16..8: 41.1% 16.6% 5.1% direct: 4.8% skip: 31.6% L0: 47.1% L1: 43.1% BI: 9.8%
    x264 info: 8x8 transform intra: 78.5% inter: 48.1%
    x264 info: coded y, uvDC, uvAC intra: 85.5% 94.0% 87.8% inter: 26.1% 35.2% 20.3%
    x264 info: i16 v, h, dc, p: 61% 14% 5% 20%
    x264 info: i8 v, h, dc, ddl, ddr, vr, hd, vl, hu: 18% 10% 12% 8% 10% 11% 10% 10% 11%
    x264 info: i4 v, h, dc, ddl, ddr, vr, hd, vl, hu: 17% 11% 5% 8% 13% 13% 12% 10% 10%
    x264 info: i8c dc, h, v, p: 52% 16% 17% 15%
    x264 info: Weighted P-Frames: Y: 1.9% UV: 1.2%
    x264 info: ref P L0: 48.7% 9.2% 15.9% 6.5% 5.2% 3.6% 3.3% 2.0% 1.7% 1.3% 1.3% 1.1% 0.0% 0.0%
    x264 info: ref B L0: 64.8% 12.9% 7.4% 4.1% 3.0% 2.5% 2.0% 1.3% 1.1% 0.7% 0.2%
    x264 info: ref B L1: 92.6% 7.4%
    x264 info: kb/s: 3486.57

    Скриншоты для ознакомления



    Все одноименные релизы в Клубе
    Время раздачи: 24/7 (круглосуточно) (до появления первых 3-5 скачавших)

    Онлайн видео Дело Коллини



    Дело Коллини / Der Fall Collini (2019) BDRip [H.264 / 720p] торрент скачать бесплатно
    Рейтинг →
     (голосов: 1, оценка 3/5, голосовать можно 1 раз )

    Другие торренты по теме:

  • Дело Коллини / Der Fall Collini (2019) WEB-DLRip [MVO] [AD]
  • Дело Коллини / Der Fall Collini (2019) WEB-DLRip [H.264 / 720p-LQ] [MVO] [AD]
  • Дело Коллини / Der Fall Collini (2019) HDRip [H.265] [10-bit]
  • Дело Коллини / Der Fall Collini (2019) BDRemux [H.264 / 1080p]
  • Дело Коллини / Der Fall Collini (2019) BDRip [H.264 / 1080p]
  • Дело Коллини / Der Fall Collini (2019) BDRip [H.264 / 720p] [PR]
  • Дело Коллини / Der Fall Collini (2019) BDRip [1080p] ATV
  • Дело Коллини / Der Fall Collini (2019) BDRip [H.265 / 1080p] [10-bit] [PR]


    • Комментарии (0):

      Информация

      Информация

        Посетители, находящиеся в группе Гости, не могут оставлять комментарии в данной новости.

        ↓ Меню




        ↓ Опрос

        Вы добавили сайт в закладки?
        Да
        Нет


        Популярное