.
Авторизация | Регистрация
bitok.xyz
Торрент скачать бесплатно Фильмы торрент скачать Побег из Ракки / Exfiltres / Escape from Raqqa (2019) WEB-DL [H.264 / 1080p] [FR / RU, EN Sub] торрент скачать бесплатно


    Побег из Ракки / Exfiltres / Escape from Raqqa (2019) WEB-DL [H.264 / 1080p] [FR / RU, EN Sub] торрент скачать бесплатно

    Дата: 29-01-2020, 05:00 | .torrent скачали: 0

    Побег из Ракки / Exfiltres / Escape from Raqqa (2019) WEB-DL [H.264 / 1080p] [FR / RU, EN Sub]Производство: Франция, Турция/Epithète Films, OCS, Ciné+
    Жанр: Драма, Триллер
    Режиссер: Эммануэль Амон

    Актеры
    Сванн Арло, Финнегэн Олдфилд, Жиска Калванда, Шарль Берлен, Кассем Аль Хойя, Ethan Palisson, Софи Каттани, Andrino Mpioso, Дрисс Рамди, Мэтью Лурдел

    Описание

    Без ведома мужа, Сильвена, Фаустина покидает Париж с пятилетним сыном, чтобы присоединиться к ИГИЛ в Сирии. Но вскоре после того как она добралась до Ракки, она поняла, в какой ад попала. Сильвен выясняет, что французские службы бессильны ей помочь.

    Дата мировой премьеры: 25 февраля 2019
    Релиз от: NNMClub
    Продолжительность: 01: 42: 08
    Качество видео: WEB-DL
    Перевод: Отсутствует
    Язык озвучки: Французский
    Субтитры: Русские, Английские
    Видео: AVC/H.264, 1920x800, ~9043 Кbps
    Аудио: E-AC3, 6 ch, 640 Кbps | Французский
    Формат : Matroska
    Версия формата : Version 4
    Размер файла : 6, 91 Гбайт
    Продолжительность : 1 ч. 42 м.
    Общий поток : 9686 Кбит/сек
    Название фильма : Escape from Raqqa
    Дата кодирования : UTC 2020-01-27 22: 51: 08
    Программа кодирования : mkvmerge v43.0.0 (\'The Quartermaster\') 64-bit
    Библиотека кодирования : libebml v1.3.10 + libmatroska v1.5.2
    Attachments : poster.png
    Видео
    Идентификатор : 1
    Формат : AVC
    Формат/Информация : Advanced Video Codec
    Профиль формата : High@L4
    Настройки формата : CABAC/4 Ref Frames
    Параметр CABAC формата : Да
    Параметр RefFrames формата : 4 кадра
    Идентификатор кодека : V_MPEG4/ISO/AVC
    Продолжительность : 1 ч. 42 м.
    Вид битрейта : Постоянный
    Битрейт : 9043 Кбит/сек
    Номинальный битрейт : 10000 Кбит/сек
    Ширина : 1920 пикселей
    Высота : 800 пикселей
    Соотношение сторон : 2, 40: 1
    Режим частоты кадров : Постоянный
    Частота кадров : 24, 000 кадра/сек
    Цветовое пространство : YUV
    Субдискретизация насыщенности : 4: 2: 0
    Битовая глубина : 8 бит
    Тип развёртки : Прогрессивная
    Бит/(Пиксели*Кадры) : 0.245
    Размер потока : 6, 45 Гбайт (93%)
    Язык : French
    Default : Да
    Forced : Нет
    Цветовой диапазон : Limited
    Основные цвета : BT.709
    Характеристики трансфера : BT.709
    Коэффициенты матрицы : BT.709
    Аудио
    Идентификатор : 2
    Формат : E-AC-3
    Формат/Информация : Enhanced AC-3
    Коммерческое название : Dolby Digital Plus
    Идентификатор кодека : A_EAC3
    Продолжительность : 1 ч. 42 м.
    Вид битрейта : Постоянный
    Битрейт : 640 Кбит/сек
    Каналы : 6 каналов
    ChannelLayout : L R C LFE Ls Rs
    Частота : 48, 0 КГц
    Частота кадров : 31, 250 кадров/сек (1536 SPF)
    Метод сжатия : С потерями
    Размер потока : 468 Мбайт (7%)
    Язык : French
    ServiceKind/String : Complete Main
    Default : Да
    Forced : Нет
    Текст #1
    Идентификатор : 3
    Формат : UTF-8
    Идентификатор кодека : S_TEXT/UTF8
    Идентификатор кодека/Информация : UTF-8 Plain Text
    Продолжительность : 1 ч. 41 м.
    Битрейт : 64 бит/сек
    ElementCount : 1133
    Размер потока : 47, 5 Кбайт (0%)
    Язык : Russian
    Default : Да
    Forced : Нет
    Текст #2
    Идентификатор : 4
    Формат : UTF-8
    Идентификатор кодека : S_TEXT/UTF8
    Идентификатор кодека/Информация : UTF-8 Plain Text
    Продолжительность : 1 ч. 41 м.
    Битрейт : 39 бит/сек
    ElementCount : 1133
    Размер потока : 29, 0 Кбайт (0%)
    Язык : English
    Default : Нет
    Forced : Нет

    Скриншоты для ознакомления

    Все одноименные релизы в Клубе
    Время раздачи: с 11: 00 до 3: 30 (до появления первых 3-5 скачавших)

    Онлайн видео Побег из Ракки



    Побег из Ракки / Exfiltres / Escape from Raqqa (2019) WEB-DL [H.264 / 1080p] [FR / RU, EN Sub] торрент скачать бесплатно
    Рейтинг →
     (голосов: 1, оценка 3/5, голосовать можно 1 раз )

    Другие торренты по теме:

  • Побег из тюрьмы: Финальный побег / Prison Break: The Final Break (2009) BDRip [H.264 / 720p]
  • Побег из тюрьмы: Коллекция / Prison Break: Collection (2005 - 2009) BDRip 720p [Все сезоны + Финальный побег]
  • Побег: Коллекция / Prison Break: Collection (2005-2009) BDRip [H.264 / 1080p] (Все сезоны + Финальный Побег)
  • Пленница. Побег / Flukt (2012) HDRip скачать через торрент бесплатно
  • Побег / La carapate (1978) BDRip [720p]
  • Беломорканал - Побег (2002) [FLAC|Lossless]<Шансон> скачать через торрент бесплатно
  • Лего. Новые хроники Йоды: Побег из храма джедаев / LEGO. The New Yoda Chronicles: Escape from the Jedi Temple (2014) SATRip
  • Побег из Шоушенка / The Shawshank Redemption (1994) BDRip [H.264] скачать через торрент бесплатно


    • Комментарии (0):

      Информация

      Информация

        Посетители, находящиеся в группе Гости, не могут оставлять комментарии в данной новости.

        ↓ Меню




        ↓ Опрос

        Вы добавили сайт в закладки?
        Да
        Нет


        Популярное