.
Авторизация | Регистрация
bitok.xyz
Торрент скачать бесплатно Фильмы торрент скачать Дом 3: Шоу ужасов / The Horror Show (1989) BDRip [H.264 / 720p] торрент скачать бесплатно


    Дом 3: Шоу ужасов / The Horror Show (1989) BDRip [H.264 / 720p] торрент скачать бесплатно

    Дата: 29-01-2020, 05:00 | .torrent скачали: 0

    Дом 3: Шоу ужасов / The Horror Show (1989) BDRip [H.264 / 720p]Производство: США/Sean S. Cunningham Films
    Жанр: ужасы
    Режиссер: Джеймс Исаак, Дэвид Блит

    Актеры
    Лэнс Хенриксен, Брайон Джеймс, Рита Таггарт, Диди Пфайфер, Арон Эйзенберг, Том Брэй, Мэтт Кларк, Дэвид Оливер, Терри Александр, Льюис Аркетт

    Описание

    Детектив Лукас МакКарти, долгое время пытавшийся поймать маньяка по прозвищу Мясоруб Макс, наконец-то его ловит и отправляет на электрический стул. Лукас наблюдает за приготовлениями к смертной казни из специальной комнаты, а в это время преступник проклинает Лукаса и всю его семью, обещая после смерти вернуться и отомстить. Немногим позже смертная казнь приводится в исполнение.
    Проходит совсем немного времени, и в доме детектива Лукаса начинают происходить странные и сверхъестественные вещи, а самого Лукаса постоянно мучают кошмары. Вскоре выясняется, что Макс действительно вернулся в этот мир (уже в качестве призрака) и намерен исполнить своё проклятье.

    Возраст: 16+ (зрителям, достигшим 16 лет)
    Рейтинг MPAA: R (лицам до 17 лет обязательно присутствие взрослого)
    Релиз от: k.e.n MegaPeer
    Продолжительность: 01: 35: 16
    Качество видео: BDRip
    Перевод: Профессиональный двухголосый, авторский
    Субтитры: английские
    Видео: AVC, 1280x694 (1.85: 1), 23.976 fps, 5801 kbps
    Аудио #1: AC3, 48 kHz, 2 ch, 192 kbps - Русский, DVO (Ren-TV)
    Аудио #2: AC3, 48 kHz, 2 ch, 192 kbps - Русский, AVO (С.Визгунов)
    Аудио #3: AC3, 48 kHz, 6 ch, 384 kbps - Английский, Original
    x264 info: frame I: 808 Avg QP: 15.13 size: 84018
    x264 info: frame P: 26729 Avg QP: 17.17 size: 47028
    x264 info: frame B: 109512 Avg QP: 18.61 size: 25714
    Format : Matroska
    Format version : Version 2
    File size : 4.37 GiB
    Duration : 1 h 35 min
    Overall bit rate : 6 567 kb/s
    Encoded date : UTC 2020-01-28 15: 04: 36
    Writing application : mkvmerge v5.3.0 (\'I could have danced\') built on Feb 9 2012 10: 38: 07
    Writing library : libebml v1.2.3 + libmatroska v1.3.0
    Cover : Yes
    Attachments : cover 3.jpg
    Video
    ID : 1
    Format : AVC
    Format/Info : Advanced Video Codec
    Format profile : High@L4.1
    Format settings : CABAC/9 Ref Frames
    Format settings, CABAC : Yes
    Format settings, Reference frames : 9 frames
    Codec ID : V_MPEG4/ISO/AVC
    Duration : 1 h 35 min
    Bit rate : 5 801 kb/s
    Width : 1 280 pixels
    Height : 694 pixels
    Display aspect ratio : 1.85: 1
    Frame rate mode : Constant
    Frame rate : 23.976 (24000/1001) FPS
    Color space : YUV
    Chroma subsampling : 4: 2: 0
    Bit depth : 8 bits
    Scan type : Progressive
    Bits/(Pixel*Frame) : 0.272
    Stream size : 3.77 GiB (86%)
    Writing library : x264 core 158 r2984 3759fcb
    Encoding settings : cabac=1/ref=9/deblock=1: -3: -3/analyse=0x3: 0x133/me=umh/subme=11/psy=1/psy_rd=1.00: 0.00/mixed_ref=1/me_range=32/chroma_me=1/trellis=2/8x8dct=1/cqm=0/deadzone=21, 11/fast_pskip=0/chroma_qp_offset=-2/threads=12/lookahead_threads=3/sliced_threads=0/nr=0/decimate=0/interlaced=0/bluray_compat=0/constrained_intra=0/bframes=12/b_pyramid=2/b_adapt=2/b_bias=0/direct=3/weightb=1/open_gop=0/weightp=2/keyint=240/keyint_min=23/scenecut=40/intra_refresh=0/rc_lookahead=60/rc=2pass/mbtree=0/bitrate=5801/ratetol=1.0/qcomp=0.75/qpmin=0/qpmax=69/qpstep=4/cplxblur=20.0/qblur=0.5/vbv_maxrate=50000/vbv_bufsize=62500/nal_hrd=none/filler=0/ip_ratio=1.30/pb_ratio=1.20/aq=3: 0.90
    Language : English
    Default : Yes
    Forced : No
    Color range : Limited
    Color primaries : BT.709
    Transfer characteristics : BT.709
    Matrix coefficients : BT.709
    Audio #1
    ID : 2
    Format : AC-3
    Format/Info : Audio Coding 3
    Commercial name : Dolby Digital
    Codec ID : A_AC3
    Duration : 1 h 35 min
    Bit rate mode : Constant
    Bit rate : 192 kb/s
    Channel(s) : 2 channels
    Channel layout : L R
    Sampling rate : 48.0 kHz
    Frame rate : 31.250 FPS (1536 SPF)
    Bit depth : 16 bits
    Compression mode : Lossy
    Stream size : 131 MiB (3%)
    Title : DVO Ren TV
    Language : Russian
    Service kind : Complete Main
    Default : Yes
    Forced : No
    Audio #2
    ID : 3
    Format : AC-3
    Format/Info : Audio Coding 3
    Commercial name : Dolby Digital
    Codec ID : A_AC3
    Duration : 1 h 35 min
    Bit rate mode : Constant
    Bit rate : 192 kb/s
    Channel(s) : 2 channels
    Channel layout : L R
    Sampling rate : 48.0 kHz
    Frame rate : 31.250 FPS (1536 SPF)
    Bit depth : 16 bits
    Compression mode : Lossy
    Stream size : 131 MiB (3%)
    Title : AVO C.Визгунов
    Language : Russian
    Service kind : Complete Main
    Default : No
    Forced : No
    Audio #3
    ID : 4
    Format : AC-3
    Format/Info : Audio Coding 3
    Commercial name : Dolby Digital
    Codec ID : A_AC3
    Duration : 1 h 35 min
    Bit rate mode : Constant
    Bit rate : 384 kb/s
    Channel(s) : 6 channels
    Channel layout : L R C LFE Ls Rs
    Sampling rate : 48.0 kHz
    Frame rate : 31.250 FPS (1536 SPF)
    Bit depth : 16 bits
    Compression mode : Lossy
    Stream size : 262 MiB (6%)
    Title : Original
    Language : English
    Service kind : Complete Main
    Default : No
    Forced : No
    Text
    ID : 5
    Format : UTF-8
    Codec ID : S_TEXT/UTF8
    Codec ID/Info : UTF-8 Plain Text
    Language : English
    Default : No
    Forced : No
    Menu
    00: 00: 00.000 : en: Chapter 1
    00: 09: 36.242 : en: Chapter 2
    00: 14: 18.566 : en: Chapter 3
    00: 21: 13.189 : en: Chapter 4
    00: 34: 47.127 : en: Chapter 5
    00: 43: 28.314 : en: Chapter 6
    00: 55: 05.010 : en: Chapter 7
    01: 14: 22.792 : en: Chapter 8
    01: 26: 10.540 : en: Chapter 9
    01: 29: 11.054 : en: Chapter 10
    01: 31: 56.136 : en: Chapter 11

    Скриншоты для ознакомления



    Все одноименные релизы в Клубе
    Время раздачи: с 23: 00 до 8: 30 (до появления первых 3-5 скачавших)

    Онлайн видео Дом 3: Шоу ужасов



    Дом 3: Шоу ужасов / The Horror Show (1989) BDRip [H.264 / 720p] торрент скачать бесплатно
    Рейтинг →
     (голосов: 1, оценка 3/5, голосовать можно 1 раз )

    Другие торренты по теме:

  • Поезд ужасов / Horror Express (1972) BDRip [H.264] [VO]
  • Американская история ужасов / American Horror Story (2014) WEB-DLRip (сезон 4, серии 1 из ) LostFilm (oбновляемая) скачать через торрент бесплатно
  • Американская история ужасов: Фрик-шоу / American Horror Story: Freak Show (2014) HDTVRip (Сезон 4 Серии 01-02 из 13) Новамедиа (обновляемая) скачать через торрент бесплатно
  • Американская история ужасов / American Horror Story (2014) WEB-DLRip (сезон 4, серии 1-2 из 13) NewStudio (oбновляемая) скачать через торрент бесплатно
  • Американская история ужасов / American Horror Story (2014) WEB-DLRip (сезон 4, серии 1-2 из 13) BaibaKo (oбновляемая) скачать через торрент бесплатно
  • Американская история ужасов: Фрик-шоу (American Horror Story: Freak Show) / (Сезон 4, серии 1-7 из 13) LostFilm (2014) [MP4|1280x720] <WEB-DLRip H.264>
  • Американская история ужасов / American Horror Story (2014) WEB-DL [H.264 / 720p-LQ] (Сезон 4, серии 1-9 из 13) (LostFilm) (обновляемая) скачать через торрент бесплатно
  • Американская история ужасов / American Horror Story (2014) WEB-DL [H.264 / 720p-LQ] (сезон 4, серии 1-12 из 13) (LostFilm, Кубик в Кубе) (обновляемая)


    • Комментарии (0):

      Информация

      Информация

        Посетители, находящиеся в группе Гости, не могут оставлять комментарии в данной новости.

        ↓ Меню




        ↓ Опрос

        Вы добавили сайт в закладки?
        Да
        Нет


        Популярное