.
Авторизация | Регистрация
bitok.xyz
Торрент скачать бесплатно Фильмы торрент скачать Некромантия / Necromancy (1972) BDRemux [H.264 / 1080p] [VO] торрент скачать бесплатно

    Некромантия / Necromancy (1972) BDRemux [H.264 / 1080p] [VO] торрент скачать бесплатно

    Дата: 29-01-2020, 05:00 | .torrent скачали: 0

    Некромантия / Necromancy (1972) BDRemux [H.264 / 1080p] [VO]Производство: США/Compass/Zenith International
    Жанр: Ужасы
    Режиссер: Берт А. Гордон
    Продюсер: Гэйл Марч, Сидни Л. Каплан, Mark E. Cohen

    Актеры
    Орсон Уэллс, Памела Франклин, Ли Пурселл, Майкл Онткин, Харви Джейсон, Лиза Джеймс, Сью Бернард, Джойс Аронсон, Анна Берглунд, Деррик Банч

    Описание

    Немногим дозволяется попасть в городок под названием Лиллит, ведь каждый его житель так или иначе принадлежит к местной секте оккультистов. Одной молодой парочке, фрэнку и Лори, это тем не менее удалось. А всё потому, что глава секты решил вернуть к жизни своего умершего сына, и для этого ему крайне необходимы сверхъестественные способности Лори.

    Рейтинг MPAA: PG (рекомендуется присутствие родителей)
    Релиз от: R.G. Goldenshara
    Продолжительность: 01: 22: 47
    Качество видео: BDRemux 1080p
    Перевод: Одноголосый любительский (Drunk As Fuck)
    Субтитры: отсутствуют
    Видео: AVC/H.264, 1920x1080 (16: 9), ~29.3 Mbps, 23.976 fps
    Аудио #1: AC3, 2 ch, 48.0 KHz, 192 kbps | Русский (VO)
    Аудио #2: DTS-HD MA, 2 ch, 48.0 KHz, 1946 kbps | Английский
    General
    Unique ID : 211665043198211855577692203050609101065 (0x9F3D34594BB7F25A879E024283C34909)
    Complete name : E: Мои рипыНекромантия.1972.BDRemux.1080p.R.G. Goldenshara.mkv
    Format : Matroska
    Format version : Version 4/Version 2
    File size : 18.2 GiB
    Duration : 1h 22mn
    Overall bit rate mode : Variable
    Overall bit rate : 31.4 Mbps
    Encoded date : UTC 2020-01-28 16: 28: 45
    Writing application : mkvmerge v6.8.0 (\'Theme for Great Cities\') 64bit built on Mar 2 2014 21: 34: 26
    Writing library : libebml v1.3.0 + libmatroska v1.4.1
    Video
    ID : 1
    Format : AVC
    Format/Info : Advanced Video Codec
    Format profile : High@L4.1
    Format settings, CABAC : Yes
    Format settings, ReFrames : 3 frames
    Format settings, GOP : M=3, N=12
    Codec ID : V_MPEG4/ISO/AVC
    Duration : 1h 22mn
    Bit rate mode : Variable
    Bit rate : 29.1 Mbps
    Maximum bit rate : 33.9 Mbps
    Width : 1 920 pixels
    Height : 1 080 pixels
    Display aspect ratio : 16: 9
    Frame rate mode : Constant
    Frame rate : 23.976 fps
    Standard : NTSC
    Color space : YUV
    Chroma subsampling : 4: 2: 0
    Bit depth : 8 bits
    Scan type : Progressive
    Bits/(Pixel*Frame) : 0.584
    Stream size : 16.8 GiB (92%)
    Language : English
    Default : Yes
    Forced : No
    Color primaries : BT.709
    Transfer characteristics : BT.709
    Matrix coefficients : BT.709
    Audio #1
    ID : 2
    Format : AC-3
    Format/Info : Audio Coding 3
    Mode extension : CM (complete main)
    Format settings, Endianness : Big
    Codec ID : A_AC3
    Duration : 1h 22mn
    Bit rate mode : Constant
    Bit rate : 192 Kbps
    Channel(s) : 2 channels
    Channel positions : Front: L R
    Sampling rate : 48.0 KHz
    Bit depth : 16 bits
    Compression mode : Lossy
    Stream size : 114 MiB (1%)
    Title : VO - Drunk As Fuck
    Language : Russian
    Default : Yes
    Forced : No
    Audio #2
    ID : 3
    Format : DTS
    Format/Info : Digital Theater Systems
    Format profile : MA/Core
    Codec ID : A_DTS
    Duration : 1h 22mn
    Bit rate mode : Variable
    Bit rate : 1 555 Kbps/1 510 Kbps
    Channel(s) : 2 channels
    Channel positions : Front: L R
    Sampling rate : 48.0 KHz
    Bit depth : 24 bits
    Compression mode : Lossless/Lossy
    Language : English
    Default : No
    Forced : No
    Menu
    00: 00: 00.000 : en: Chapter 1
    00: 02: 17.220 : en: Chapter 2
    00: 09: 10.925 : en: Chapter 3
    00: 15: 17.124 : en: Chapter 4
    00: 20: 12.461 : en: Chapter 5
    00: 25: 51.299 : en: Chapter 6
    00: 30: 48.721 : en: Chapter 7
    00: 39: 23.903 : en: Chapter 8
    00: 48: 43.754 : en: Chapter 9
    00: 58: 06.232 : en: Chapter 10
    01: 07: 36.969 : en: Chapter 11
    01: 12: 43.692 : en: Chapter 12
    01: 18: 02.928 : en: Chapter 13
    01: 21: 41.813 : en: Chapter 14


    Онлайн видео Некромантия



    Некромантия / Necromancy (1972) BDRemux [H.264 / 1080p] [VO] торрент скачать бесплатно
    Рейтинг →
     (голосов: 1, оценка 3/5, голосовать можно 1 раз )

    Другие торренты по теме:

  • Раскрывая мистические тайны. Некромантия (2016) SATRip
  • Купава Огинская | Прикладная некромантия. Записки между страниц (2017) [FB2]


    • Комментарии (0):

      Информация

      Информация

        Посетители, находящиеся в группе Гости, не могут оставлять комментарии в данной новости.

        ↓ Меню




        ↓ Опрос

        Вы добавили сайт в закладки?
        Да
        Нет


        Популярное