.
Авторизация | Регистрация
bitok.xyz
Торрент скачать бесплатно Фильмы торрент скачать Время / In time (2011) BDRip [H.265 / 1080p] [10-bit] торрент скачать бесплатно


    Время / In time (2011) BDRip [H.265 / 1080p] [10-bit] торрент скачать бесплатно

    Дата: 29-01-2020, 05:00 | .torrent скачали: 0

    Время / In time (2011) BDRip [H.265 / 1080p] [10-bit]Производство: США, New Regency Pictures, Regency Enterprises, Strike Entertainment
    Жанр: Фантастика, Триллер, Драма, Мелодрама, Криминал
    Режиссер: Эндрю Никкол

    Актеры
    Джастин Тимберлэйк, Аманда Сайфред, Киллиан Мёрфи, Алекс Петтифер, Винсент Картайзер, Джонни Галэки, Коллинс Пенни, Тоби Хемингуэй, Оливия Уайлд, Шайло Уствальд

    Описание

    Добро пожаловать в мир, где время стало единственной и самой твердой валютой, где люди генетически запрограммированы так, что в 25 лет перестают стареть. Правда, последующие годы стоят денег. И вот богатые становятся практически бессмертными, а бедные, как всегда, обречены сражаться за жизнь.
    Уилл, бунтарь из гетто, несправедливо обвинен в убийстве с целью грабежа времени и вынужден, захватив заложницу, пуститься в бега. Так, ежеминутно рискуя жизнью, эти двое становятся грозным оружием в борьбе с системой. Но вот вопрос: кто кого? А может быть, в дело вмешается третья сила?..

    Возраст: 12+ (зрителям, достигшим 12 лет)
    Рейтинг MPAA: PG-13 (детям до 13 лет просмотр нежелателен)
    Релиз от: ZixGeeSu
    Продолжительность: 01: 49: 16
    Качество видео: BDRip
    Перевод: Дублированный (Blu-Ray CEE)
    Субтитры: Русские, Английские
    Видео: HEVC/H.265, 23.976 fps, 1920x816, ~6272 kbps
    Аудио 1: AC3, 6 ch, 640 kbps - Русский дубляж
    Аудио 2: AC3, 6 ch, 640 kbps - Английский
    Format : Matroska
    Format version : Version 4
    File size : 5.77 GiB
    Duration : 1 h 49 min
    Overall bit rate : 7 555 kb/s
    Encoded date : UTC 2020-01-27 05: 33: 37
    Writing application : mkvmerge v42.0.0 (\'Overtime\') 64-bit
    Writing library : libebml v1.3.10 + libmatroska v1.5.2/Lavf58.20.100
    Attachments : poster.jpg
    Video
    ID : 1
    Format : HEVC
    Format/Info : High Efficiency Video Coding
    Format profile : Main 10@L4@Main
    Codec ID : V_MPEGH/ISO/HEVC
    Duration : 1 h 49 min
    Bit rate : 6 272 kb/s
    Width : 1 920 pixels
    Height : 816 pixels
    Display aspect ratio : 2.35: 1
    Frame rate mode : Constant
    Frame rate : 23.976 (24000/1001) FPS
    Color space : YUV
    Chroma subsampling : 4: 2: 0
    Bit depth : 10 bits
    Bits/(Pixel*Frame) : 0.167
    Stream size : 4.79 GiB (83%)
    Writing library : x265 2.9: WindowsGCC 8.2.064 bit 10bit
    Encoding settings : cpuid=1111039/frame-threads=5/numa-pools=16/wpp/no-pmode/no-pme/no-psnr/no-ssim/log-level=2/input-csp=1/input-res=1920x816/interlace=0/total-frames=0/level-idc=0/high-tier=1/uhd-bd=0/ref=1/no-allow-non-conformance/no-repeat-t_heads/annexb/no-aud/no-hrd/info/hash=0/no-temporal-layers/open-gop/min-keyint=24/keyint=240/gop-lookahead=0/bframes=8/b-adapt=2/b-pyramid/bframe-bias=0/rc-lookahead=48/lookahead-slices=4/scenecut=40/radl=0/no-intra-refresh/ctu=64/min-cu-size=8/rect/no-amp/max-tu-size=32/tu-inter-depth=1/tu-intra-depth=1/limit-tu=0/rdoq-level=2/dynamic-rd=0.00/no-ssim-rd/signhide/no-tskip/nr-intra=0/nr-inter=0/no-constrained-intra/strong-intra-smoothing/max-merge=3/limit-refs=3/limit-modes/me=3/subme=7/merange=57/temporal-mvp/weightp/no-weightb/no-analyze-src-pics/deblock=-5: -5/no-sao/no-sao-non-deblock/rd=4/no-early-skip/no-rskip/no-fast-intra/no-tskip-fast/no-cu-lossless/no-b-intra/no-splitrd-skip/rdpenalty=0/psy-rd=2.50/psy-rdoq=2.00/no-rd-refine/no-lossless/cbqpoffs=0/crqpoffs=0/rc=crf/crf=21.5/qcomp=1.00/qpstep=15/stats-write=0/stats-read=0/ipratio=1.10/pbratio=1.00/aq-mode=2/aq-strength=1.00/no-cutree/zone-count=0/no-strict-cbr/qg-size=32/rc-grain/qpmax=69/qpmin=0/no-const-vbv/sar=1/overscan=0/videoformat=5/range=0/colorprim=1/transfer=1/colormatrix=1/chromaloc=0/display-window=0/max-cll=0, 0/min-luma=0/max-luma=1023/log2-max-poc-lsb=8/vui-timing-info/vui-hrd-info/slices=1/no-opt-qp-pps/no-opt-ref-list-length-pps/no-multi-pass-opt-rps/scenecut-bias=0.05/no-opt-cu-delta-qp/no-aq-motion/no-hdr/no-hdr-opt/no-dhdr10-opt/no-idr-recovery-sei/analysis-reuse-level=5/scale-factor=0/refine-intra=0/refine-inter=0/refine-mv=0/no-limit-sao/ctu-info=0/no-lowpass-dct/refine-mv-type=0/copy-pic=1/max-ausize-factor=1.0/no-dynamic-refine/no-single-sei
    Default : Yes
    Forced : No
    Color range : Limited
    Color primaries : BT.709
    Transfer characteristics : BT.709
    Matrix coefficients : BT.709
    Audio #1
    ID : 2
    Format : AC-3
    Format/Info : Audio Coding 3
    Commercial name : Dolby Digital
    Codec ID : A_AC3
    Duration : 1 h 49 min
    Bit rate mode : Constant
    Bit rate : 640 kb/s
    Channel(s) : 6 channels
    Channel layout : L R C LFE Ls Rs
    Sampling rate : 48.0 kHz
    Frame rate : 31.250 FPS (1536 SPF)
    Bit depth : 16 bits
    Compression mode : Lossy
    Delay relative to video : -5 ms
    Stream size : 500 MiB (8%)
    Title : Russian
    Language : Russian
    Service kind : Complete Main
    Default : Yes
    Forced : No
    Audio #2
    ID : 3
    Format : AC-3
    Format/Info : Audio Coding 3
    Commercial name : Dolby Digital
    Codec ID : A_AC3
    Duration : 1 h 49 min
    Bit rate mode : Constant
    Bit rate : 640 kb/s
    Channel(s) : 6 channels
    Channel layout : L R C LFE Ls Rs
    Sampling rate : 48.0 kHz
    Frame rate : 31.250 FPS (1536 SPF)
    Bit depth : 16 bits
    Compression mode : Lossy
    Delay relative to video : -5 ms
    Stream size : 500 MiB (8%)
    Title : English
    Language : English
    Service kind : Complete Main
    Default : No
    Forced : No
    Text #1
    ID : 4
    Format : UTF-8
    Codec ID : S_TEXT/UTF8
    Codec ID/Info : UTF-8 Plain Text
    Duration : 1 h 27 min
    Bit rate : 1 b/s
    Count of elements : 18
    Stream size : 778 Bytes (0%)
    Title : forced
    Language : Russian
    Default : Yes
    Forced : No
    Text #2
    ID : 5
    Format : UTF-8
    Codec ID : S_TEXT/UTF8
    Codec ID/Info : UTF-8 Plain Text
    Duration : 1 h 41 min
    Bit rate : 62 b/s
    Count of elements : 1066
    Stream size : 46.4 KiB (0%)
    Title : full
    Language : Russian
    Default : No
    Forced : No
    Text #3
    ID : 6
    Format : UTF-8
    Codec ID : S_TEXT/UTF8
    Codec ID/Info : UTF-8 Plain Text
    Duration : 1 h 41 min
    Bit rate : 41 b/s
    Count of elements : 1120
    Stream size : 30.6 KiB (0%)
    Title : full
    Language : English
    Default : No
    Forced : No
    Text #4
    ID : 7
    Format : UTF-8
    Codec ID : S_TEXT/UTF8
    Codec ID/Info : UTF-8 Plain Text
    Duration : 1 h 41 min
    Bit rate : 43 b/s
    Count of elements : 1213
    Stream size : 32.4 KiB (0%)
    Title : SDH
    Language : English
    Default : No
    Forced : No


    Онлайн видео Время



    Время / In time (2011) BDRip [H.265 / 1080p] [10-bit] торрент скачать бесплатно
    Рейтинг →
     (голосов: 1, оценка 3/5, голосовать можно 1 раз )

    Другие торренты по теме:

  • Упущенное время / Time Renegades (2016) HDRip
  • Время волков / Le Temps du loup, The Time of the Wolf (2003) BDRip [720p]
  • Время волков / Le Temps du loup, The Time of the Wolf (2003) DVDRip
  • Время Приключений с Финном и Джейком / Adventure Time with Finn & Jake (2012) WEB-DLRip [H.264 / 720p-LQ] (Сезон 5, серия 1-23 из 52) [Обновляемая]
  • Потерянное время / Lost Time (2014) HDRip [VO] скачать через торрент бесплатно
  • Пора Приключений (Время Приключений) / Adventure Time (2014) WEB-DL [720p] (Сезон: 6, Серии: 1-9a из 13) [EN, RU Sub] скачать через торрент бесплатно
  • История игрушек: Время забыть / Toy Story That Time Forgot (2014) HDTVRip [H.264 / 720p-LQ] [EN] скачать через торрент бесплатно
  • История игрушек: Время забыть / Toy Story That Time Forgot (2014) HDTVRip [H.264 / 720p-LQ]


    • Комментарии (0):

      Информация

      Информация

        Посетители, находящиеся в группе Гости, не могут оставлять комментарии в данной новости.

        ↓ Меню




        ↓ Опрос

        Вы добавили сайт в закладки?
        Да
        Нет


        Популярное