.
Авторизация | Регистрация
bitok.xyz
Торрент скачать бесплатно Фильмы торрент скачать Слоёный торт / Layer Cake (2004) BDRip [H.265 / 1080p] [10-bit] торрент скачать бесплатно


    Слоёный торт / Layer Cake (2004) BDRip [H.265 / 1080p] [10-bit] торрент скачать бесплатно

    Дата: 29-01-2020, 05:00 | .torrent скачали: 1

    Слоёный торт / Layer Cake (2004) BDRip [H.265 / 1080p] [10-bit]Производство: Великобритания/Sony Pictures Classics, Marv Films
    Жанр: боевик, триллер, драма, криминал
    Режиссер: Мэттью Вон

    Актеры
    Дэниэл Крэйг, Сиенна Миллер, Колм Мини, Кеннет Крэнэм, Майкл Гэмбон, Джейсон Флеминг, Том Харди, Бен Уишоу, Декстер Флетчер, Джордж Харрис

    Описание
    Торговать кокаином — не цветочки разводить. Бизнес нервный, чреватый ранней смертностью. Поэтому наркодилер по кличке Четыре Икса, заработав достаточно неправедных денег, решает более не искушать судьбу и уйти на покой. Однако перед этим ему, как водится, придется оказать своему боссу последнюю услугу: разыскать пропавшую дочку его старого приятеля.

    Возраст: 16+ (зрителям, достигшим 16 лет)
    Рейтинг MPAA: R (лицам до 17 лет обязательно присутствие взрослого)
    Релиз от: OldGamer
    Продолжительность: 01: 45: 34
    Качество видео: BDRip
    Перевод: Многоголосый, двухголосый, авторский, любительский одноголосый
    Субтитры: Русские, английские
    Видео: HEVC/H.265, 1910x796, ~10, 2 Мbps
    Аудио 1: AC3, 6 ch, 448 Kbps - Русский, MVO (Видеосервис)
    Аудио 2: AC3, 6 ch, 640 Kbps - Русский, DVO (Blu-ray EUR)
    Аудио 3: AC3, 6 ch, 448 Kbps - Русский, DVO (FDV)
    Аудио 4: AC3, 2 ch, 224 Kbps - Русский, DVO
    Аудио 5: AC3, 6 ch, 640 Kbps - Русский, AVO (Яроцкий)
    Аудио 6: AC3, 6 ch, 448 Kbps - Русский, VO (Kloun2010)
    Аудио 7: AC3, 6 ch, 640 Kbps - Английский
    Общее
    Уникальный идентификатор : 51775883485408683713562429371779550188 (0x26F3AC2509E68B65D613185BAE8E8BEC)
    Полное имя : R: Слоёный.торт.Layer.Cake.2004.BDRip-HEVC.1080.mkv
    Формат : Matroska
    Версия формата : Version 4/Version 2
    Размер файла : 10, 1 Гбайт
    Продолжительность : 1 ч. 45 м.
    Общий поток : 13, 7 Мбит/сек
    Название фильма : Layer Cake
    Дата кодирования : UTC 2020-01-10 13: 05: 24
    Программа кодирования : mkvmerge v40.0.0 (\'Old Town Road + Pony\') 64-bit
    Библиотека кодирования : libebml v1.3.9 + libmatroska v1.5.2/Lavf57.71.100
    Обложка : Yes
    Attachments : cover (5).jpg
    ENCODING_INFO : MATROSKA, WEBM MKV/MPEG2 X265 CRF 19.1 Very Slow/AC3 COPY Безопасное/DTS AC3 CBR 640kbps/AC3 COPY Безопасное/AC3 COPY Безопасное/AC3 COPY Безопасное/AC3 COPY Безопасное/DTS AC3 CBR 640kbps
    Видео
    Идентификатор : 1
    Формат : HEVC
    Формат/Информация : High Efficiency Video Coding
    Профиль формата : Main10@L4.1@High
    Идентификатор кодека : V_MPEGH/ISO/HEVC
    Продолжительность : 1 ч. 45 м.
    Битрейт : 10, 2 Мбит/сек
    Ширина : 1910 пикселей
    Высота : 796 пикселей
    Соотношение сторон : 2, 40: 1
    Режим частоты кадров : Постоянный
    Частота кадров : 23, 976 (24000/1001) кадра/сек
    Цветовое пространство : YUV
    Субдискретизация насыщенности : 4: 2: 0
    Битовая глубина : 10 бит
    Бит/(Пиксели*Кадры) : 0.279
    Размер потока : 7, 51 Гбайт (74%)
    Заголовок : Layer Cake/Rip by OldGamer
    Библиотека кодирования : x265 2.9+9-f74003e88622: WindowsGCC 8.2.064 bit 10bit
    Настройки программы : cpuid=1111039/frame-threads=16/numa-pools=16/wpp/no-pmode/no-pme/no-psnr/no-ssim/log-level=3/input-csp=1/input-res=1910x796/interlace=0/total-frames=0/level-idc=41/high-tier=1/uhd-bd=0/ref=5/allow-non-conformance/no-repeat-t_heads/annexb/no-aud/no-hrd/info/hash=0/no-temporal-layers/open-gop/min-keyint=24/keyint=240/gop-lookahead=0/bframes=15/b-adapt=2/b-pyramid/bframe-bias=0/rc-lookahead=80/lookahead-slices=5/scenecut=40/radl=0/no-intra-refresh/ctu=64/min-cu-size=8/rect/amp/max-tu-size=32/tu-inter-depth=4/tu-intra-depth=4/limit-tu=1/rdoq-level=2/dynamic-rd=0.00/no-ssim-rd/signhide/no-tskip/nr-intra=0/nr-inter=0/no-constrained-intra/no-strong-intra-smoothing/max-merge=5/limit-refs=3/no-limit-modes/me=3/subme=7/merange=57/temporal-mvp/weightp/weightb/no-analyze-src-pics/deblock=-3: -3/no-sao/no-sao-non-deblock/rd=6/no-early-skip/rskip/no-fast-intra/no-tskip-fast/no-cu-lossless/no-b-intra/no-splitrd-skip/rdpenalty=0/psy-rd=2.00/psy-rdoq=1.00/no-rd-refine/no-lossless/cbqpoffs=0/crqpoffs=0/rc=crf/crf=19.1/qcomp=0.60/qpstep=4/stats-write=0/stats-read=0/vbv-maxrate=50000/vbv-bufsize=50000/vbv-init=0.9/crf-max=0.0/crf-min=0.0/ipratio=1.40/pbratio=1.30/aq-mode=2/aq-strength=0.80/no-cutree/zone-count=1/zones: /start-frame=146260/end-frame=151876/qp=35/no-strict-cbr/qg-size=32/no-rc-grain/qpmax=69/qpmin=0/no-const-vbv/sar=1/overscan=0/videoformat=5/range=0/colorprim=2/transfer=2/colormatrix=2/chromaloc=0/display-window=0/max-cll=0, 0/min-luma=0/max-luma=1023/log2-max-poc-lsb=8/vui-timing-info/vui-hrd-info/slices=1/no-opt-qp-pps/no-opt-ref-list-length-pps/no-multi-pass-opt-rps/scenecut-bias=0.00/no-opt-cu-delta-qp/aq-motion/no-hdr/no-hdr-opt/no-dhdr10-opt/no-idr-recovery-sei/analysis-reuse-level=5/scale-factor=0/refine-intra=0/refine-inter=0/refine-mv=0/no-limit-sao/ctu-info=0/no-lowpass-dct/refine-mv-type=0/copy-pic=1/max-ausize-factor=1.0/no-dynamic-refine/no-single-sei
    Язык : English
    Default : Да
    Forced : Нет
    Цветовой диапазон : Limited
    Аудио #1
    Идентификатор : 2
    Формат : AC-3
    Формат/Информация : Audio Coding 3
    Идентификатор кодека : A_AC3
    Продолжительность : 1 ч. 45 м.
    Вид битрейта : Постоянный
    Битрейт : 448 Кбит/сек
    Каналы : 6 каналов
    Расположение каналов : Front: L C R, Side: L R, LFE
    Частота : 48, 0 КГц
    Частота кадров : 31, 250 кадров/сек (1536 SPF)
    Битовая глубина : 16 бит
    Метод сжатия : С потерями
    Размер потока : 338 Мбайт (3%)
    Заголовок : Профессиональный многоголосый (Видеосервис)
    Язык : Russian
    ServiceKind/String : Complete Main
    Default : Да
    Forced : Нет
    Аудио #2
    Идентификатор : 3
    Формат : AC-3
    Формат/Информация : Audio Coding 3
    Идентификатор кодека : A_AC3
    Продолжительность : 1 ч. 45 м.
    Вид битрейта : Постоянный
    Битрейт : 640 Кбит/сек
    Каналы : 6 каналов
    Расположение каналов : Front: L C R, Side: L R, LFE
    Частота : 48, 0 КГц
    Частота кадров : 31, 250 кадров/сек (1536 SPF)
    Битовая глубина : 16 бит
    Метод сжатия : С потерями
    Размер потока : 483 Мбайт (5%)
    Заголовок : Профессиональный двухголосый (Blu-ray EUR)
    Язык : Russian
    ServiceKind/String : Complete Main
    Default : Нет
    Forced : Нет
    Аудио #3
    Идентификатор : 4
    Формат : AC-3
    Формат/Информация : Audio Coding 3
    Идентификатор кодека : A_AC3
    Продолжительность : 1 ч. 45 м.
    Вид битрейта : Постоянный
    Битрейт : 448 Кбит/сек
    Каналы : 6 каналов
    Расположение каналов : Front: L C R, Side: L R, LFE
    Частота : 48, 0 КГц
    Частота кадров : 31, 250 кадров/сек (1536 SPF)
    Битовая глубина : 16 бит
    Метод сжатия : С потерями
    Размер потока : 338 Мбайт (3%)
    Заголовок : Профессиональный двухголосый (FDV)
    Язык : Russian
    ServiceKind/String : Complete Main
    Default : Нет
    Forced : Нет
    Аудио #4
    Идентификатор : 5
    Формат : AC-3
    Формат/Информация : Audio Coding 3
    Идентификатор кодека : A_AC3
    Продолжительность : 1 ч. 45 м.
    Вид битрейта : Постоянный
    Битрейт : 224 Кбит/сек
    Каналы : 2 канала
    Расположение каналов : Front: L R
    Частота : 48, 0 КГц
    Частота кадров : 31, 250 кадров/сек (1536 SPF)
    Битовая глубина : 16 бит
    Метод сжатия : С потерями
    Размер потока : 169 Мбайт (2%)
    Заголовок : Профессиональный двухголосый
    Язык : Russian
    ServiceKind/String : Complete Main
    Default : Нет
    Forced : Нет
    Аудио #5
    Идентификатор : 6
    Формат : AC-3
    Формат/Информация : Audio Coding 3
    Идентификатор кодека : A_AC3
    Продолжительность : 1 ч. 45 м.
    Вид битрейта : Постоянный
    Битрейт : 640 Кбит/сек
    Каналы : 6 каналов
    Расположение каналов : Front: L C R, Side: L R, LFE
    Частота : 48, 0 КГц
    Частота кадров : 31, 250 кадров/сек (1536 SPF)
    Битовая глубина : 16 бит
    Метод сжатия : С потерями
    Размер потока : 483 Мбайт (5%)
    Заголовок : Авторский одноголосый (Яроцкий)
    Язык : Russian
    ServiceKind/String : Complete Main
    Default : Нет
    Forced : Нет
    Аудио #6
    Идентификатор : 7
    Формат : AC-3
    Формат/Информация : Audio Coding 3
    Идентификатор кодека : A_AC3
    Продолжительность : 1 ч. 45 м.
    Вид битрейта : Постоянный
    Битрейт : 448 Кбит/сек
    Каналы : 6 каналов
    Расположение каналов : Front: L C R, Side: L R, LFE
    Частота : 48, 0 КГц
    Частота кадров : 31, 250 кадров/сек (1536 SPF)
    Битовая глубина : 16 бит
    Метод сжатия : С потерями
    Размер потока : 338 Мбайт (3%)
    Заголовок : Любительский одноголосый (Kloun2010)
    Язык : Russian
    ServiceKind/String : Complete Main
    Default : Нет
    Forced : Нет
    Аудио #7
    Идентификатор : 8
    Формат : AC-3
    Формат/Информация : Audio Coding 3
    Идентификатор кодека : A_AC3
    Продолжительность : 1 ч. 45 м.
    Вид битрейта : Постоянный
    Битрейт : 640 Кбит/сек
    Каналы : 6 каналов
    Расположение каналов : Front: L C R, Side: L R, LFE
    Частота : 48, 0 КГц
    Частота кадров : 31, 250 кадров/сек (1536 SPF)
    Битовая глубина : 16 бит
    Метод сжатия : С потерями
    Размер потока : 483 Мбайт (5%)
    Язык : English
    ServiceKind/String : Complete Main
    Default : Нет
    Forced : Нет
    Текст #1
    Идентификатор : 9
    Формат : UTF-8
    Идентификатор кодека : S_TEXT/UTF8
    Идентификатор кодека/Информация : UTF-8 Plain Text
    Продолжительность : 1 ч. 40 м.
    Битрейт : 104 бит/сек
    ElementCount : 1101
    Размер потока : 77, 1 Кбайт (0%)
    Заголовок : full
    Язык : Russian
    Default : Нет
    Forced : Нет
    Текст #2
    Идентификатор : 10
    Формат : UTF-8
    Идентификатор кодека : S_TEXT/UTF8
    Идентификатор кодека/Информация : UTF-8 Plain Text
    Продолжительность : 1 ч. 40 м.
    Битрейт : 60 бит/сек
    ElementCount : 1070
    Размер потока : 44, 8 Кбайт (0%)
    Заголовок : full
    Язык : English
    Default : Нет
    Forced : Нет
    Меню #1
    00: 00: 00.000 : : Chapter 01
    00: 15: 45.819 : : Chapter 02
    00: 22: 33.185 : : Chapter 03
    00: 30: 08.640 : : Chapter 04
    00: 33: 26.796 : : Chapter 05
    00: 37: 39.131 : : Chapter 06
    00: 42: 47.314 : : Chapter 07
    00: 46: 15.898 : : Chapter 08
    00: 50: 28.650 : : Chapter 09
    00: 59: 21.558 : : Chapter 10
    01: 05: 05.776 : : Chapter 11
    01: 12: 17.916 : : Chapter 12
    01: 17: 28.977 : : Chapter 13
    01: 21: 55.452 : : Chapter 14
    01: 28: 57.373 : : Chapter 15
    01: 31: 51.422 : : Chapter 16
    Меню #2
    00: 00: 00.000 : : Chapter 01
    00: 15: 45.986 : : Chapter 02
    00: 22: 33.185 : : Chapter 03
    00: 30: 08.681 : : Chapter 04
    00: 33: 26.796 : : Chapter 05
    00: 37: 39.297 : : Chapter 06
    00: 42: 47.314 : : Chapter 07
    00: 46: 16.148 : : Chapter 08
    00: 50: 29.025 : : Chapter 09
    00: 59: 21.557 : : Chapter 10
    01: 05: 06.110 : : Chapter 11
    01: 12: 18.207 : : Chapter 12
    01: 17: 29.102 : : Chapter 13
    01: 21: 55.368 : : Chapter 14
    01: 28: 57.497 : : Chapter 15
    01: 31: 51.546 : : Chapter 16


    Онлайн видео Слоёный торт



    Слоёный торт / Layer Cake (2004) BDRip [H.265 / 1080p] [10-bit] торрент скачать бесплатно
    Рейтинг →
     (голосов: 1, оценка 5/5, голосовать можно 1 раз )

    Другие торренты по теме:

  • Слоёный торт / Layer Cake (2004) BDRip [H.264 / 720p]


    • Комментарии (0):

      Информация

      Информация

        Посетители, находящиеся в группе Гости, не могут оставлять комментарии в данной новости.

        ↓ Меню




        ↓ Опрос

        Вы добавили сайт в закладки?
        Да
        Нет


        Популярное