.
Авторизация | Регистрация
bitok.xyz
Торрент скачать бесплатно Фильмы торрент скачать Угнать за 60 секунд / Gone in Sixty Seconds (2000) BDRip [H.265 / 1080p] [10-bit] торрент скачать бесплатно


    Угнать за 60 секунд / Gone in Sixty Seconds (2000) BDRip [H.265 / 1080p] [10-bit] торрент скачать бесплатно

    Дата: 29-01-2020, 05:00 | .torrent скачали: 1

    Угнать за 60 секунд / Gone in Sixty Seconds (2000) BDRip [H.265 / 1080p] [10-bit]Производство: США/Touchstone Pictures, Jerry Bruckheimer Films
    Жанр: боевик, триллер, криминал
    Режиссер: Доминик Сена

    Актеры
    Николас Кейдж, Анджелина Джоли, Джованни Рибизи, Роберт Дювалл, Уилл Пэттон, Делрой Линдо, Тимоти Олифант, Скотт Каан, Кристофер Экклстон, Винни Джонс

    Описание
    Что можно успеть за 60 секунд? Выкурить сигарету или выпить чашку кофе. Но только один профессионал в мире, легендарный вор по кличке Мемфис, может за считанные секунды угнать любой автомобиль.

    Возраст: 16+ (зрителям, достигшим 16 лет)
    Рейтинг MPAA: PG-13 (детям до 13 лет просмотр нежелателен)
    Релиз от: OldGamer
    Продолжительность: 01: 58: 02
    Качество видео: BDRip
    Перевод: Дублированный
    Субтитры: Русские, английские
    Видео: HEVC/H.265, 1920x816, ~7151 Kbps
    Аудио 1: AC3, 6 ch, 640 Kbps - Русский, дублированный
    Аудио 2: AC3, 6 ch, 640 Kbps - Английский
    Общее
    Уникальный идентификатор : 126598964732214413849426720320088451894 (0x5F3E12DEB2FC441D2CC81C060A142B36)
    Полное имя : R: Угнать.за.60.секунд.Gone.In.60.Seconds.2000.BDRip-HEVC.1080p.mkv
    Формат : Matroska
    Версия формата : Version 4/Version 2
    Размер файла : 6, 43 Гбайт
    Продолжительность : 1 ч. 58 м.
    Общий поток : 7798 Кбит/сек
    Название фильма : Угнать.за.60.секунд.Gone.In.60.Seconds.2000.BD
    Дата кодирования : UTC 2020-01-17 15: 04: 12
    Программа кодирования : mkvmerge v42.0.0 (\'Overtime\') 64-bit
    Библиотека кодирования : libebml v1.3.10 + libmatroska v1.5.2
    Обложка : Yes
    Attachments : cover.jpg
    Видео
    Идентификатор : 1
    Формат : HEVC
    Формат/Информация : High Efficiency Video Coding
    Профиль формата : Main10@L4.1@High
    Идентификатор кодека : V_MPEGH/ISO/HEVC
    Продолжительность : 1 ч. 57 м.
    Битрейт : 7151 Кбит/сек
    Ширина : 1920 пикселей
    Высота : 816 пикселей
    Соотношение сторон : 2, 35: 1
    Режим частоты кадров : Постоянный
    Частота кадров : 23, 976 (24000/1001) кадра/сек
    Цветовое пространство : YUV
    Субдискретизация насыщенности : 4: 2: 0
    Битовая глубина : 10 бит
    Бит/(Пиксели*Кадры) : 0.190
    Размер потока : 5, 89 Гбайт (92%)
    Заголовок : Gone in Sixty Seconds/Rip by OldGamer
    Библиотека кодирования : x265 2.9+9-f74003e88622: WindowsGCC 8.2.064 bit 10bit
    Настройки программы : cpuid=1111039/frame-threads=13/numa-pools=12/wpp/no-pmode/no-pme/no-psnr/no-ssim/log-level=3/input-csp=1/input-res=1920x816/interlace=0/total-frames=0/level-idc=41/high-tier=1/uhd-bd=0/ref=5/allow-non-conformance/no-repeat-t_heads/annexb/no-aud/no-hrd/info/hash=0/no-temporal-layers/open-gop/min-keyint=23/keyint=240/gop-lookahead=0/bframes=13/b-adapt=2/b-pyramid/bframe-bias=0/rc-lookahead=80/lookahead-slices=5/scenecut=40/radl=0/no-intra-refresh/ctu=64/min-cu-size=8/rect/amp/max-tu-size=32/tu-inter-depth=4/tu-intra-depth=4/limit-tu=1/rdoq-level=2/dynamic-rd=0.00/no-ssim-rd/signhide/no-tskip/nr-intra=0/nr-inter=0/no-constrained-intra/no-strong-intra-smoothing/max-merge=5/limit-refs=3/no-limit-modes/me=3/subme=7/merange=57/temporal-mvp/weightp/weightb/no-analyze-src-pics/deblock=-3: -3/no-sao/no-sao-non-deblock/rd=6/no-early-skip/rskip/no-fast-intra/no-tskip-fast/no-cu-lossless/no-b-intra/no-splitrd-skip/rdpenalty=0/psy-rd=2.00/psy-rdoq=1.00/no-rd-refine/no-lossless/cbqpoffs=0/crqpoffs=0/rc=crf/crf=19.1/qcomp=0.60/qpstep=4/stats-write=0/stats-read=0/vbv-maxrate=50000/vbv-bufsize=50000/vbv-init=0.9/crf-max=0.0/crf-min=0.0/ipratio=1.40/pbratio=1.30/aq-mode=2/aq-strength=0.80/no-cutree/zone-count=1/zones: /start-frame=160658/end-frame=169678/qp=36/no-strict-cbr/qg-size=32/no-rc-grain/qpmax=69/qpmin=0/no-const-vbv/sar=1/overscan=0/videoformat=5/range=0/colorprim=2/transfer=2/colormatrix=2/chromaloc=0/display-window=0/max-cll=0, 0/min-luma=0/max-luma=1023/log2-max-poc-lsb=8/vui-timing-info/vui-hrd-info/slices=1/no-opt-qp-pps/no-opt-ref-list-length-pps/no-multi-pass-opt-rps/scenecut-bias=0.00/no-opt-cu-delta-qp/aq-motion/no-hdr/no-hdr-opt/no-dhdr10-opt/no-idr-recovery-sei/analysis-reuse-level=5/scale-factor=0/refine-intra=0/refine-inter=0/refine-mv=0/no-limit-sao/ctu-info=0/no-lowpass-dct/refine-mv-type=0/copy-pic=1/max-ausize-factor=1.0/no-dynamic-refine/no-single-sei
    Язык : English
    Default : Да
    Forced : Нет
    Цветовой диапазон : Limited
    Аудио #1
    Идентификатор : 2
    Формат : AC-3
    Формат/Информация : Audio Coding 3
    Идентификатор кодека : A_AC3
    Продолжительность : 1 ч. 58 м.
    Вид битрейта : Постоянный
    Битрейт : 640 Кбит/сек
    Каналы : 6 каналов
    Расположение каналов : Front: L C R, Side: L R, LFE
    Частота : 48, 0 КГц
    Частота кадров : 31, 250 кадров/сек (1536 SPF)
    Битовая глубина : 16 бит
    Метод сжатия : С потерями
    Размер потока : 540 Мбайт (8%)
    Заголовок : Dub
    Язык : Russian
    ServiceKind/String : Complete Main
    Default : Нет
    Forced : Нет
    Аудио #2
    Идентификатор : 3
    Формат : AC-3
    Формат/Информация : Audio Coding 3
    Идентификатор кодека : A_AC3
    Продолжительность : 53 с. 248 мс.
    Вид битрейта : Постоянный
    Битрейт : 640 Кбит/сек
    Каналы : 6 каналов
    Расположение каналов : Front: L C R, Side: L R, LFE
    Частота : 48, 0 КГц
    Частота кадров : 31, 250 кадров/сек (1536 SPF)
    Битовая глубина : 16 бит
    Метод сжатия : С потерями
    Размер потока : 4, 06 Мбайт (0%)
    Язык : English
    ServiceKind/String : Complete Main
    Default : Нет
    Forced : Нет
    Текст #1
    Идентификатор : 4
    Формат : UTF-8
    Идентификатор кодека : S_TEXT/UTF8
    Идентификатор кодека/Информация : UTF-8 Plain Text
    Продолжительность : 1 ч. 49 м.
    Битрейт : 105 бит/сек
    ElementCount : 1507
    Размер потока : 85, 2 Кбайт (0%)
    Язык : Russian
    Default : Да
    Forced : Нет
    Текст #2
    Идентификатор : 5
    Формат : UTF-8
    Идентификатор кодека : S_TEXT/UTF8
    Идентификатор кодека/Информация : UTF-8 Plain Text
    Продолжительность : 1 ч. 48 м.
    Битрейт : 72 бит/сек
    ElementCount : 1346
    Размер потока : 57, 3 Кбайт (0%)
    Язык : English
    Default : Нет
    Forced : Нет
    Меню
    00: 00: 00.000 : en: Chapter 01
    00: 03: 25.455 : en: Chapter 02
    00: 08: 47.151 : en: Chapter 03
    00: 11: 55.089 : en: Chapter 04
    00: 16: 55.264 : en: Chapter 05
    00: 18: 44.373 : en: Chapter 06
    00: 23: 37.416 : en: Chapter 07
    00: 26: 51.109 : en: Chapter 08
    00: 31: 59.417 : en: Chapter 09
    00: 33: 37.890 : en: Chapter 10
    00: 36: 24.682 : en: Chapter 11
    00: 38: 43.696 : en: Chapter 12
    00: 39: 34.747 : en: Chapter 13
    00: 42: 12.029 : en: Chapter 14
    00: 44: 20.282 : en: Chapter 15
    00: 48: 43.420 : en: Chapter 16
    00: 52: 56.548 : en: Chapter 17
    00: 58: 45.355 : en: Chapter 18
    01: 06: 18.307 : en: Chapter 19
    01: 11: 08.097 : en: Chapter 20
    01: 13: 43.877 : en: Chapter 21
    01: 17: 30.979 : en: Chapter 22
    01: 19: 39.733 : en: Chapter 23
    01: 21: 24.963 : en: Chapter 24
    01: 26: 48.161 : en: Chapter 25
    01: 32: 53.150 : en: Chapter 26
    01: 34: 19.487 : en: Chapter 27
    01: 38: 28.861 : en: Chapter 28
    01: 40: 07.918 : en: Chapter 29
    01: 44: 13.413 : en: Chapter 30
    01: 48: 40.555 : en: Chapter 31
    01: 51: 49.619 : en: Chapter 32


    Онлайн видео Угнать за 60 секунд



    Угнать за 60 секунд / Gone in Sixty Seconds (2000) BDRip [H.265 / 1080p] [10-bit] торрент скачать бесплатно
    Рейтинг →
     (голосов: 1, оценка 5/5, голосовать можно 1 раз )

    Другие торренты по теме:

  • Угнать за 60 секунд / Gone in Sixty Seconds (2000) BDRip [H.265 / 1080p-LQ] [10-bit]
  • Угнать за 60 секунд / Gone In 60 Seconds (1974) [HQ|H.264] DVDRip
  • Угнать за 60 секунд 2: Старьевщик / Gone In 60 Seconds 2: The Junkman (1982) DVDRip


    • Комментарии (0):

      Информация

      Информация

        Посетители, находящиеся в группе Гости, не могут оставлять комментарии в данной новости.

        ↓ Меню




        ↓ Опрос

        Вы добавили сайт в закладки?
        Да
        Нет


        Популярное