.
Авторизация | Регистрация
bitok.xyz
Торрент скачать бесплатно Фильмы торрент скачать Радиоволна / Frequency (2000) BDRip [H.265 / 1080p] [10-bit] торрент скачать бесплатно


    Радиоволна / Frequency (2000) BDRip [H.265 / 1080p] [10-bit] торрент скачать бесплатно

    Дата: 29-01-2020, 05:00 | .torrent скачали: 0

    Радиоволна / Frequency (2000) BDRip [H.265 / 1080p] [10-bit]Производство: США/New Line Cinema
    Жанр: триллер, фантастика, драма, криминал
    Режиссер: Грегори Хоблит

    Актеры
    Деннис Куэйд, Джеймс Кэвизел, Шоун Дойл, Элизабет Митчелл, Андре Брогер, Ноа Эммерик, Мелисса Эррико, Дэниэл Хенсон, Джордан Бриджес, Стефен Джофф

    Описание
    Полицейский Джон Салливэн случайно связывается по любительской радиостанции со своим покойным отцом, пожарным Фрэнком Салливэном, который умер во время тушения пожара много лет назад…

    Возраст: 16+ (зрителям, достигшим 16 лет)
    Рейтинг MPAA: PG-13 (детям до 13 лет просмотр нежелателен)
    Релиз от: OldGamer
    Продолжительность: 01: 58: 39
    Качество видео: BDRip
    Перевод: Дублированный, многоголосый, авторский
    Субтитры: Русские, английские
    Видео: HEVC/H.265, 1920x818, ~9665 Kbps
    Аудио 1: AC3, 6 ch, 448 Kbps - Русский, дублированный
    Аудио 2: AC3, 6 ch, 640 Kbps - Русский, MVO (Киномания)
    Аудио 3: AC3, 6 ch, 640 Kbps - Русский, MVO (CP Digital)
    Аудио 4: AC3, 6 ch, 640 Kbps - Русский, AVO (Гаврилов)
    Аудио 5: AC3, 6 ch, 640 Kbps - Русский, AVO (Живов)
    Аудио 6: AC3, 6 ch, 640 Kbps - Русский, AVO (Визгунов)
    Аудио 7: AC3, 2 ch, 192 Kbps - Английский, (коментарии)(в МИ ошибка! Там не русская дорожка)
    Аудио 8: AC3, 6 ch, 640 Kbps - Английский
    Аудио 9: AC3, 2 ch, 192 Kbps - Английский, (коментарии)
    Общее
    Уникальный идентификатор : 17389452733027965034324024748988331859 (0xD151636C9D3FE4BB0AB3CD68D4A7753)
    Полное имя : R: Радиоволна.Frequency.2000.BDRip-HEVC.1080p.mkv
    Формат : Matroska
    Версия формата : Version 4/Version 2
    Размер файла : 11, 9 Гбайт
    Продолжительность : 1 ч. 58 м.
    Общий поток : 14, 3 Мбит/сек
    Название фильма : Frequency
    Дата кодирования : UTC 2020-01-14 02: 03: 55
    Программа кодирования : mkvmerge v42.0.0 (\'Overtime\') 64-bit
    Библиотека кодирования : libebml v1.3.10 + libmatroska v1.5.2
    Обложка : Yes
    Attachments : cover.jpg
    Видео
    Идентификатор : 1
    Формат : HEVC
    Формат/Информация : High Efficiency Video Coding
    Профиль формата : Main10@L4.1@High
    Идентификатор кодека : V_MPEGH/ISO/HEVC
    Продолжительность : 1 ч. 58 м.
    Битрейт : 9665 Кбит/сек
    Ширина : 1920 пикселей
    Высота : 818 пикселей
    Соотношение сторон : 2, 35: 1
    Режим частоты кадров : Постоянный
    Частота кадров : 23, 976 (24000/1001) кадра/сек
    Цветовое пространство : YUV
    Субдискретизация насыщенности : 4: 2: 0
    Битовая глубина : 10 бит
    Бит/(Пиксели*Кадры) : 0.257
    Размер потока : 8, 01 Гбайт (67%)
    Заголовок : Frequency/Rip by OldGamer
    Библиотека кодирования : x265 2.9+9-f74003e88622: WindowsGCC 8.2.064 bit 10bit
    Настройки программы : cpuid=1111039/frame-threads=13/numa-pools=12/wpp/no-pmode/no-pme/no-psnr/no-ssim/log-level=3/input-csp=1/input-res=1920x818/interlace=0/total-frames=0/level-idc=41/high-tier=1/uhd-bd=0/ref=5/allow-non-conformance/no-repeat-t_heads/annexb/no-aud/no-hrd/info/hash=0/no-temporal-layers/open-gop/min-keyint=23/keyint=240/gop-lookahead=0/bframes=16/b-adapt=2/b-pyramid/bframe-bias=0/rc-lookahead=80/lookahead-slices=5/scenecut=40/radl=0/no-intra-refresh/ctu=64/min-cu-size=8/rect/amp/max-tu-size=32/tu-inter-depth=4/tu-intra-depth=4/limit-tu=1/rdoq-level=2/dynamic-rd=0.00/no-ssim-rd/signhide/no-tskip/nr-intra=0/nr-inter=0/no-constrained-intra/no-strong-intra-smoothing/max-merge=5/limit-refs=3/no-limit-modes/me=3/subme=7/merange=57/temporal-mvp/weightp/weightb/no-analyze-src-pics/deblock=-3: -3/no-sao/no-sao-non-deblock/rd=6/no-early-skip/rskip/no-fast-intra/no-tskip-fast/no-cu-lossless/no-b-intra/no-splitrd-skip/rdpenalty=0/psy-rd=2.00/psy-rdoq=1.00/no-rd-refine/no-lossless/cbqpoffs=0/crqpoffs=0/rc=crf/crf=19.2/qcomp=0.60/qpstep=4/stats-write=0/stats-read=0/vbv-maxrate=50000/vbv-bufsize=50000/vbv-init=0.9/crf-max=0.0/crf-min=0.0/ipratio=1.40/pbratio=1.30/aq-mode=2/aq-strength=1.00/no-cutree/zone-count=1/zones: /start-frame=163734/end-frame=170679/qp=36/no-strict-cbr/qg-size=32/no-rc-grain/qpmax=69/qpmin=0/no-const-vbv/sar=1/overscan=0/videoformat=5/range=0/colorprim=2/transfer=2/colormatrix=2/chromaloc=0/display-window=0/max-cll=0, 0/min-luma=0/max-luma=1023/log2-max-poc-lsb=8/vui-timing-info/vui-hrd-info/slices=1/no-opt-qp-pps/no-opt-ref-list-length-pps/no-multi-pass-opt-rps/scenecut-bias=0.00/no-opt-cu-delta-qp/aq-motion/no-hdr/no-hdr-opt/no-dhdr10-opt/no-idr-recovery-sei/analysis-reuse-level=5/scale-factor=0/refine-intra=0/refine-inter=0/refine-mv=0/no-limit-sao/ctu-info=0/no-lowpass-dct/refine-mv-type=0/copy-pic=1/max-ausize-factor=1.0/no-dynamic-refine/no-single-sei
    Язык : English
    Default : Да
    Forced : Нет
    Цветовой диапазон : Limited
    Аудио #1
    Идентификатор : 2
    Формат : AC-3
    Формат/Информация : Audio Coding 3
    Идентификатор кодека : A_AC3
    Продолжительность : 1 ч. 58 м.
    Вид битрейта : Постоянный
    Битрейт : 448 Кбит/сек
    Каналы : 6 каналов
    Расположение каналов : Front: L C R, Side: L R, LFE
    Частота : 48, 0 КГц
    Частота кадров : 31, 250 кадров/сек (1536 SPF)
    Битовая глубина : 16 бит
    Метод сжатия : С потерями
    Размер потока : 380 Мбайт (3%)
    Заголовок : Дубляж
    Язык : Russian
    ServiceKind/String : Complete Main
    Default : Да
    Forced : Нет
    Аудио #2
    Идентификатор : 3
    Формат : AC-3
    Формат/Информация : Audio Coding 3
    Идентификатор кодека : A_AC3
    Продолжительность : 1 ч. 58 м.
    Вид битрейта : Постоянный
    Битрейт : 640 Кбит/сек
    Каналы : 6 каналов
    Расположение каналов : Front: L C R, Side: L R, LFE
    Частота : 48, 0 КГц
    Частота кадров : 31, 250 кадров/сек (1536 SPF)
    Битовая глубина : 16 бит
    Метод сжатия : С потерями
    Размер потока : 543 Мбайт (4%)
    Заголовок : MVO (Киномания)
    Язык : Russian
    ServiceKind/String : Complete Main
    Default : Нет
    Forced : Нет
    Аудио #3
    Идентификатор : 4
    Формат : AC-3
    Формат/Информация : Audio Coding 3
    Идентификатор кодека : A_AC3
    Продолжительность : 1 ч. 58 м.
    Вид битрейта : Постоянный
    Битрейт : 640 Кбит/сек
    Каналы : 6 каналов
    Расположение каналов : Front: L C R, Side: L R, LFE
    Частота : 48, 0 КГц
    Частота кадров : 31, 250 кадров/сек (1536 SPF)
    Битовая глубина : 16 бит
    Метод сжатия : С потерями
    Размер потока : 543 Мбайт (4%)
    Заголовок : MVO (CP Digital)
    Язык : Russian
    ServiceKind/String : Complete Main
    Default : Нет
    Forced : Нет
    Аудио #4
    Идентификатор : 5
    Формат : AC-3
    Формат/Информация : Audio Coding 3
    Идентификатор кодека : A_AC3
    Продолжительность : 1 ч. 58 м.
    Вид битрейта : Постоянный
    Битрейт : 640 Кбит/сек
    Каналы : 6 каналов
    Расположение каналов : Front: L C R, Side: L R, LFE
    Частота : 48, 0 КГц
    Частота кадров : 31, 250 кадров/сек (1536 SPF)
    Битовая глубина : 16 бит
    Метод сжатия : С потерями
    Размер потока : 543 Мбайт (4%)
    Заголовок : AVO (Андрей Гаврилов)
    Язык : Russian
    ServiceKind/String : Complete Main
    Default : Нет
    Forced : Нет
    Аудио #5
    Идентификатор : 6
    Формат : AC-3
    Формат/Информация : Audio Coding 3
    Идентификатор кодека : A_AC3
    Продолжительность : 1 ч. 58 м.
    Вид битрейта : Постоянный
    Битрейт : 640 Кбит/сек
    Каналы : 6 каналов
    Расположение каналов : Front: L C R, Side: L R, LFE
    Частота : 48, 0 КГц
    Частота кадров : 31, 250 кадров/сек (1536 SPF)
    Битовая глубина : 16 бит
    Метод сжатия : С потерями
    Размер потока : 543 Мбайт (4%)
    Заголовок : AVO (Юрий Живов)
    Язык : Russian
    ServiceKind/String : Complete Main
    Default : Нет
    Forced : Нет
    Аудио #6
    Идентификатор : 7
    Формат : AC-3
    Формат/Информация : Audio Coding 3
    Идентификатор кодека : A_AC3
    Продолжительность : 1 ч. 58 м.
    Вид битрейта : Постоянный
    Битрейт : 640 Кбит/сек
    Каналы : 6 каналов
    Расположение каналов : Front: L C R, Side: L R, LFE
    Частота : 48, 0 КГц
    Частота кадров : 31, 250 кадров/сек (1536 SPF)
    Битовая глубина : 16 бит
    Метод сжатия : С потерями
    Размер потока : 543 Мбайт (4%)
    Заголовок : AVO (Сергей Визгунов)
    Язык : Russian
    ServiceKind/String : Complete Main
    Default : Нет
    Forced : Нет
    Аудио #7
    Идентификатор : 8
    Формат : AC-3
    Формат/Информация : Audio Coding 3
    Идентификатор кодека : A_AC3
    Продолжительность : 1 ч. 58 м.
    Вид битрейта : Постоянный
    Битрейт : 192 Кбит/сек
    Каналы : 2 канала
    Расположение каналов : Front: L R
    Частота : 48, 0 КГц
    Частота кадров : 31, 250 кадров/сек (1536 SPF)
    Битовая глубина : 16 бит
    Метод сжатия : С потерями
    Размер потока : 163 Мбайт (1%)
    Заголовок : Коментарии
    Язык : Russian
    ServiceKind/String : Complete Main
    Default : Нет
    Forced : Нет
    Аудио #8
    Идентификатор : 9
    Формат : AC-3
    Формат/Информация : Audio Coding 3
    Идентификатор кодека : A_AC3
    Продолжительность : 1 ч. 58 м.
    Вид битрейта : Постоянный
    Битрейт : 640 Кбит/сек
    Каналы : 6 каналов
    Расположение каналов : Front: L C R, Side: L R, LFE
    Частота : 48, 0 КГц
    Частота кадров : 31, 250 кадров/сек (1536 SPF)
    Битовая глубина : 16 бит
    Метод сжатия : С потерями
    Размер потока : 543 Мбайт (4%)
    Язык : English
    ServiceKind/String : Complete Main
    Default : Нет
    Forced : Нет
    Аудио #9
    Идентификатор : 10
    Формат : AC-3
    Формат/Информация : Audio Coding 3
    Идентификатор кодека : A_AC3
    Продолжительность : 1 ч. 58 м.
    Вид битрейта : Постоянный
    Битрейт : 192 Кбит/сек
    Каналы : 2 канала
    Расположение каналов : Front: L R
    Частота : 48, 0 КГц
    Частота кадров : 31, 250 кадров/сек (1536 SPF)
    Битовая глубина : 16 бит
    Метод сжатия : С потерями
    Размер потока : 163 Мбайт (1%)
    Заголовок : Коментарии
    Язык : English
    ServiceKind/String : Complete Main
    Default : Нет
    Forced : Нет
    Текст #1
    Идентификатор : 11
    Формат : UTF-8
    Идентификатор кодека : S_TEXT/UTF8
    Идентификатор кодека/Информация : UTF-8 Plain Text
    Продолжительность : 1 ч. 51 м.
    Битрейт : 64 бит/сек
    ElementCount : 1171
    Размер потока : 52, 5 Кбайт (0%)
    Язык : Russian
    Default : Нет
    Forced : Нет
    Текст #2
    Идентификатор : 12
    Формат : UTF-8
    Идентификатор кодека : S_TEXT/UTF8
    Идентификатор кодека/Информация : UTF-8 Plain Text
    Продолжительность : 1 ч. 58 м.
    Битрейт : 77 бит/сек
    ElementCount : 1440
    Размер потока : 66, 8 Кбайт (0%)
    Язык : English
    Default : Нет
    Forced : Нет


    Онлайн видео Радиоволна



    Радиоволна / Frequency (2000) BDRip [H.265 / 1080p] [10-bit] торрент скачать бесплатно
    Рейтинг →
     (голосов: 1, оценка 4/5, голосовать можно 1 раз )

    Другие торренты по теме:

  • Радиоволна / Frequency (2016) WEB-DLRip (сезон 1, серии 1 из 10) OmskBird (обновляемая)
  • Радиоволна / Frequency (2016) WEB-DL [H.264 / 720p-LQ] (сезон 1, серии 1 из 10) OmskBird (обновляемая)
  • Радиоволна / Frequency (2016) WEB-DL [H.264 / 1080p-LQ] (сезон 1, серии 1-2 из 10) NewStudio (обновляемая)
  • Радиоволна / Frequency (2016) WEB-DLRip (сезон 1, серии 1 из 10) LostFilm (обновляемая)
  • Радиоволна / Frequency (2016) WEB-DL [H.264 / 1080p-LQ] (сезон 1, серии 1 из 10) LostFilm (обновляемая)
  • Радиоволна / Frequency (2016) WEB-DLRip (сезон 1, серии 1-2 из 10) NewStudio (обновляемая)
  • Радиоволна / Frequency (2016) WEB-DL [H.264] (сезон 1, серии 1-5 из 10) LostFilm [MP4|1280x718]
  • Радиоволна / Frequency (2016) WEBRip [H.264 / 1080p-LQ] (сезон 1, серии 1-4 из 10) AlexFilm, Lostfilm, Кравец, NewStudio, OmskBird (обновляемая)


    • Комментарии (0):

      Информация

      Информация

        Посетители, находящиеся в группе Гости, не могут оставлять комментарии в данной новости.

        ↓ Меню




        ↓ Опрос

        Вы добавили сайт в закладки?
        Да
        Нет


        Популярное