.
Авторизация | Регистрация
bitok.xyz
Торрент скачать бесплатно Фильмы торрент скачать Покровские ворота (1982) BDRip [H.264] (серии 1-2 из 2) [Реставрация КП] торрент скачать бесплатно


    Покровские ворота (1982) BDRip [H.264] (серии 1-2 из 2) [Реставрация КП] торрент скачать бесплатно

    Дата: 29-01-2020, 05:00 | .torrent скачали: 3

    Покровские ворота (1982) BDRip [H.264] (серии 1-2 из 2) [Реставрация КП]Производство: СССР/Мосфильм
    Жанр: мюзикл, драма, мелодрама, комедия
    Режиссер: Михаил Козаков

    Актеры
    Олег Меньшиков, Леонид Броневой, Инна Ульянова, Софья Пилявская, Анатолий Равикович, Виктор Борцов, Елена Коренева, Татьяна Догилева, Елизавета Никищихина, Игорь Дмитриев

    Описание

    Если вы развелись, и ваша бывшая жена снова вышла замуж — это еще не значит, что вы свободны. Если вы пригласили девушку на свидание, и она пришла, это еще не значит, что она будет вашей. Но если при этом ваш сосед по коммуналке — аспирант Костик, то можете быть уверены — все будет хорошо.

    Возраст: 0+ (для любой зрительской аудитории)
    Релиз от: MAG3131
    Продолжительность: 02: 19: 44
    Качество видео: BDRip
    Перевод: Не требуется (BD RUS)
    Субтитры: Отсутствуют
    Видео: AVC/H.264, 792x576, ~2350 kbps
    Аудио: AC3, 6 ch, 448 kbpsYouTube
    -Information 23.01.2020 1: 29: 00 x264 info: frame I: 1073 Avg QP: 16.14 size: 66257
    -Information 23.01.2020 1: 29: 00 x264 info: frame P: 52254 Avg QP: 19.09 size: 24806
    -Information 23.01.2020 1: 29: 00 x264 info: frame B: 147682 Avg QP: 20.92 size: 7418

    Общее
    Уникальный идентификатор : 102362428641480359215201088419837147882 (0x4D024961E65B4EDAE231C06CC8327AEA)
    Полное имя : The.Pokrovskie.Gate.1982.BDRip.RUS.RKP.MAG3131.mkv
    Формат : Matroska
    Версия формата : Version 2
    Размер файла : 2, 73 Гбайт
    Продолжительность : 2 ч. 19 м.
    Общий поток : 2800 Кбит/сек
    Название фильма : Покровские ворота (MAG3131)
    Дата кодирования : UTC 2020-01-28 00: 54: 43
    Программа кодирования : mkvmerge v43.0.0 (\'The Quartermaster\') 64-bit
    Библиотека кодирования : libebml v1.3.10 + libmatroska v1.5.2
    Attachments : Лог кодирования.log
    Видео
    Идентификатор : 1
    Формат : AVC
    Формат/Информация : Advanced Video Codec
    Профиль формата : High@L4.1
    Настройки формата : CABAC/12 Ref Frames
    Параметр CABAC формата : Да
    Параметр RefFrames формата : 12 кадров
    Идентификатор кодека : V_MPEG4/ISO/AVC
    Продолжительность : 2 ч. 19 м.
    Битрейт : 2350 Кбит/сек
    Ширина : 792 пикселя
    Высота : 576 пикселей
    Соотношение сторон : 1, 375
    Режим частоты кадров : Постоянный
    Частота кадров : 23, 976 (24000/1001) кадра/сек
    Цветовое пространство : YUV
    Субдискретизация насыщенности : 4: 2: 0
    Битовая глубина : 8 бит
    Тип развёртки : Прогрессивная
    Бит/(Пиксели*Кадры) : 0.215
    Размер потока : 2, 24 Гбайт (82%)
    Заголовок : Покровские ворота
    Библиотека кодирования : x264 core 157 r2969 d4099dd
    Настройки программы : cabac=1/ref=12/deblock=1: -1: -1/analyse=0x3: 0x133/me=umh/subme=11/psy=1/psy_rd=1.00: 0.15/mixed_ref=1/me_range=64/chroma_me=1/trellis=2/8x8dct=1/cqm=0/deadzone=21, 11/fast_pskip=0/chroma_qp_offset=-3/threads=6/lookahead_threads=1/sliced_threads=0/nr=0/decimate=0/interlaced=0/bluray_compat=0/constrained_intra=0/bframes=16/b_pyramid=2/b_adapt=2/b_bias=0/direct=3/weightb=1/open_gop=0/weightp=2/keyint=240/keyint_min=23/scenecut=40/intra_refresh=0/rc_lookahead=60/rc=2pass/mbtree=0/bitrate=2350/ratetol=1.0/qcomp=0.60/qpmin=0/qpmax=69/qpstep=4/cplxblur=20.0/qblur=0.5/vbv_maxrate=50000/vbv_bufsize=62500/nal_hrd=none/filler=0/ip_ratio=1.40/pb_ratio=1.30/aq=1: 1.00
    Язык : Russian
    Default : Да
    Forced : Нет
    Аудио
    Идентификатор : 2
    Формат : AC-3
    Формат/Информация : Audio Coding 3
    Коммерческое название : Dolby Digital
    Идентификатор кодека : A_AC3
    Продолжительность : 2 ч. 19 м.
    Вид битрейта : Постоянный
    Битрейт : 448 Кбит/сек
    Каналы : 6 каналов
    ChannelLayout : L R C LFE Ls Rs
    Частота : 48, 0 КГц
    Частота кадров : 31, 250 кадров/сек (1536 SPF)
    Метод сжатия : С потерями
    Размер потока : 448 Мбайт (16%)
    Заголовок : Оригинал (AC-3, Постоянный, 448 Кбит/сек, 6 каналов, 48, 0 КГц)
    Язык : Russian
    ServiceKind/String : Complete Main
    Default : Да
    Forced : Нет
    Меню
    00: 00: 00.000 : : Глава 01
    00: 04: 41.740 : : Глава 02
    00: 07: 55.058 : : Глава 03
    00: 12: 43.471 : : Глава 04
    00: 17: 41.477 : : Глава 05
    00: 22: 17.378 : : Глава 06
    00: 29: 18.298 : : Глава 07
    00: 33: 50.195 : : Глава 08
    00: 48: 47.216 : : Глава 09
    00: 50: 58.722 : : Глава 10
    00: 55: 14.770 : : Глава 11
    01: 04: 12.432 : : Глава 12
    01: 05: 57.453 : : Глава 13
    01: 18: 47.348 : : Глава 14
    01: 20: 16.895 : : Глава 15
    01: 23: 46.813 : : Глава 16
    01: 25: 34.504 : : Глава 17
    01: 25: 44.306 : : Глава 18
    01: 38: 41.833 : : Глава 19
    01: 39: 59.243 : : Глава 20
    01: 42: 04.577 : : Глава 21
    01: 47: 15.971 : : Глава 22
    01: 50: 43.303 : : Глава 23
    01: 53: 03.193 : : Глава 24
    01: 55: 07.984 : : Глава 25
    02: 01: 07.802 : : Глава 26
    02: 10: 29.947 : : Глава 27
    02: 15: 49.266 : : Глава 28

    Скриншоты для ознакомления



    Все одноименные релизы в Клубе
    Время раздачи: 24/7 до первых 10 скачавших, потом ухожу с раздачи

    Онлайн видео Покровские ворота (1982) BDRip [H.264] (серии 1



    Покровские ворота (1982) BDRip [H.264] (серии 1-2 из 2) [Реставрация КП] торрент скачать бесплатно
    Рейтинг →
     (голосов: 1, оценка 3/5, голосовать можно 1 раз )

    Другие торренты по теме:

  • Покровские ворота (1982) WEB-DLRip (серии 1-2 из 2)


    • Комментарии (0):

      Информация

      Информация

        Посетители, находящиеся в группе Гости, не могут оставлять комментарии в данной новости.

        ↓ Меню




        ↓ Опрос

        Вы добавили сайт в закладки?
        Да
        Нет


        Популярное