.
Авторизация | Регистрация
bitok.xyz
Торрент скачать бесплатно Фильмы торрент скачать Два друга, модель и подруга (1927) WEBRip торрент скачать бесплатно


    Два друга, модель и подруга (1927) WEBRip торрент скачать бесплатно

    Дата: 29-01-2020, 05:00 | .torrent скачали: 1

    Два друга, модель и подруга (1927) WEBRipПроизводство: СССР/Совкино (Москва)
    Жанр: Мелодрама, комедия, немое кино
    Режиссер: Алексей Попов

    Актеры
    Сергей Яблоков, Сергей Лаврентьев, Ольга Третьякова, Николай Ниров, Алексей Попов, Николай Романов

    Описание

    Фильм — веселая сатира о злоключениях двух друзей, молодых рабочих мыловаренного завода, которые изобрели машину для изготовления тары и претерпели немало мытарств, пока их модель признали, об их борьбе с нэпманами и бюрократами, о союзе с комсомольцами, благодаря которым друзья достигают неплохих результатов в изобретательском деле и труде.

    Возраст: 0+ (для любой зрительской аудитории)
    Релиз от: nigelliri, музыкально-звуковое оформление - nigelliri
    Продолжительность: 01: 03: 35
    Качество видео: WEBRip
    Субтитры: Отсутствуют
    Видео: Xvid, 720x544, ~1600 Kbps
    Аудио: AC3, 2 ch, 256 Kbps
    General
    Format : AVI
    Format/Info : Audio Video Interleave
    File size : 848 MiB
    Duration : 1 h 3 min
    Overall bit rate : 1 865 kb/s
    Writing application : VirtualDubModRus 1.5.10.2 (build 2542/release)
    Writing library : VirtualDubMod build 2542/release
    Video
    ID : 0
    Format : MPEG-4 Visual
    Format profile : Advanced Simple@L5
    Format settings, BVOP : 2
    Format settings, QPel : No
    Format settings, GMC : No warppoints
    Format settings, Matrix : Default (H.263)
    Codec ID : XVID
    Codec ID/Hint : XviD
    Duration : 1 h 3 min
    Bit rate : 1 600 kb/s
    Width : 720 pixels
    Height : 544 pixels
    Display aspect ratio : 4: 3
    Frame rate : 25.000 FPS
    Color space : YUV
    Chroma subsampling : 4: 2: 0
    Bit depth : 8 bits
    Scan type : Progressive
    Compression mode : Lossy
    Bits/(Pixel*Frame) : 0.163
    Stream size : 728 MiB (86%)
    Writing library : XviD 73
    Audio
    ID : 1
    Format : AC-3
    Format/Info : Audio Coding 3
    Format settings, Endianness : Big
    Codec ID : 2000
    Duration : 1 h 3 min
    Bit rate mode : Constant
    Bit rate : 256 kb/s
    Channel(s) : 2 channels
    Channel positions : Front: L R
    Sampling rate : 48.0 kHz
    Frame rate : 31.250 FPS (1536 spf)
    Bit depth : 16 bits
    Compression mode : Lossy
    Stream size : 116 MiB (14%)
    Alignment : Split accross interleaves
    Interleave, duration : 40 ms (1.00 video frame)
    Interleave, preload duration : 500 ms
    Service kind : Complete Main

    Скриншоты для ознакомления



    Все одноименные релизы в Клубе
    Время раздачи: 24/7 (до появления первых 3-5 скачавших)

    Онлайн видео Покровские ворота (1982) BDRip [H.264] (серии 1



    Два друга, модель и подруга (1927) WEBRip торрент скачать бесплатно
    Рейтинг →
     (голосов: 1, оценка 3/5, голосовать можно 1 раз )

    Другие торренты по теме:

  • Друга Ріка - Supernation (2014) [MP3|320 кб / с] <Rock>
  • Onii-chan Dakedo Ai Sae Areba Kankei Nai yo ne / OniAi / Пусть он и мой брат, но это не имеет значения, если мы любим друг друга [2012,TV,12 ep] BDRip Hi10p 720p Raw+Rus скачать через торрент бесплатно
  • VA - Александра Пахмутова. Нам не жить друг без друга (2014) [MP3|320 кб / с]<Retro, Pop> скачать через торрент бесплатно
  • Два друга (1954) TVRip скачать через торрент бесплатно
  • Кто находит друга, найдет и сокровище / Chi trova un amico trova un tesoro (1981) BDRip [H.264] скачать через торрент бесплатно
  • Леон Гаррос ищет друга (1960) TVRip скачать через торрент бесплатно
  • Тим Милн | Ким Филби. Неизвестная история супершпиона КГБ. Откровения близкого друга и коллеги по МИ-6 (2016) [FB2]
  • Борис Рахлин - Для друга Миши (1970) [MP3|320 кб / с] <Shanson>


    • Комментарии (0):

      Информация

      Информация

        Посетители, находящиеся в группе Гости, не могут оставлять комментарии в данной новости.

        ↓ Меню




        ↓ Опрос

        Вы добавили сайт в закладки?
        Да
        Нет


        Популярное