.
Авторизация | Регистрация
bitok.xyz
Торрент скачать бесплатно Фильмы торрент скачать Полосатый рейс (1961) BDRip [H.264] [Реставрация КП] торрент скачать бесплатно


    Полосатый рейс (1961) BDRip [H.264] [Реставрация КП] торрент скачать бесплатно

    Дата: 29-01-2020, 05:00 | .torrent скачали: 1

    Полосатый рейс (1961) BDRip [H.264] [Реставрация КП]Производство: СССР/Ленфильм
    Жанр: комедия, семейный, приключения
    Режиссер: Владимир Фетин

    Актеры
    Алексей Грибов, Иван Дмитриев, Маргарита Назарова, Евгений Леонов, Владимир Белокуров, Николай Волков, Александр Бениаминов, Аркадий Трусов, Алексей Смирнов, Алексей Кожевников

    Описание

    На советский теплоход погрузили опасный груз — тигров и львов, а сопровождать приставили буфетчика… Во время плавания маленькая обезьянка, подаренная капитану, открывает клетки. Хищники выходят на свободу, вся команда в ужасе разбегается. И только племяннице капитана удается спасти положение, укротив диких зверей…

    Возраст: 12+ (зрителям, достигшим 12 лет)
    Релиз от: MAG3131
    Продолжительность: 01: 27: 08
    Качество видео: BDRip
    Перевод: Не требуется (BD RUS)
    Субтитры: Отсутствуют
    Видео: AVC/H.264, 1024x576, ~5165 kbps
    Аудио: AC3, 6 ch, 448 kbpsYouTube
    -Information 28.01.2020 1: 59: 43 x264 info: frame I: 726 Avg QP: 16.72 size: 110809
    -Information 28.01.2020 1: 59: 43 x264 info: frame P: 32270 Avg QP: 19.20 size: 51410
    -Information 28.01.2020 1: 59: 43 x264 info: frame B: 92344 Avg QP: 20.76 size: 17710

    Общее
    Уникальный идентификатор : 4578094364973778334355840314668574080 (0x371B57AA39892FF552D4B3AC44D6580)
    Полное имя : Striped.Trip.1961.BDRip.RUS.RKP.MAG3131.mkv
    Формат : Matroska
    Версия формата : Version 2
    Размер файла : 3, 42 Гбайт
    Продолжительность : 1 ч. 27 м.
    Общий поток : 5614 Кбит/сек
    Название фильма : Полосатый рейс (MAG3131)
    Дата кодирования : UTC 2020-01-28 02: 45: 42
    Программа кодирования : mkvmerge v43.0.0 (\'The Quartermaster\') 64-bit
    Библиотека кодирования : libebml v1.3.10 + libmatroska v1.5.2
    Attachments : Лог кодирования.log
    Видео
    Идентификатор : 1
    Формат : AVC
    Формат/Информация : Advanced Video Codec
    Профиль формата : High@L4.1
    Настройки формата : CABAC/12 Ref Frames
    Параметр CABAC формата : Да
    Параметр RefFrames формата : 12 кадров
    Идентификатор кодека : V_MPEG4/ISO/AVC
    Продолжительность : 1 ч. 27 м.
    Битрейт : 5165 Кбит/сек
    Ширина : 1024 пикселя
    Высота : 576 пикселей
    Соотношение сторон : 16: 9
    Режим частоты кадров : Постоянный
    Частота кадров : 23, 976 (24000/1001) кадра/сек
    Цветовое пространство : YUV
    Субдискретизация насыщенности : 4: 2: 0
    Битовая глубина : 8 бит
    Тип развёртки : Прогрессивная
    Бит/(Пиксели*Кадры) : 0.365
    Размер потока : 3, 08 Гбайт (90%)
    Заголовок : Полосатый рейс
    Библиотека кодирования : x264 core 157 r2969 d4099dd
    Настройки программы : cabac=1/ref=12/deblock=1: -1: -1/analyse=0x3: 0x133/me=umh/subme=11/psy=1/psy_rd=1.00: 0.15/mixed_ref=1/me_range=64/chroma_me=1/trellis=2/8x8dct=1/cqm=0/deadzone=21, 11/fast_pskip=0/chroma_qp_offset=-3/threads=6/lookahead_threads=1/sliced_threads=0/nr=0/decimate=0/interlaced=0/bluray_compat=0/constrained_intra=0/bframes=16/b_pyramid=2/b_adapt=2/b_bias=0/direct=3/weightb=1/open_gop=0/weightp=2/keyint=240/keyint_min=23/scenecut=40/intra_refresh=0/rc_lookahead=60/rc=2pass/mbtree=0/bitrate=5165/ratetol=1.0/qcomp=0.60/qpmin=0/qpmax=69/qpstep=4/cplxblur=20.0/qblur=0.5/vbv_maxrate=50000/vbv_bufsize=62500/nal_hrd=none/filler=0/ip_ratio=1.40/pb_ratio=1.30/aq=1: 1.00
    Язык : Russian
    Default : Да
    Forced : Нет
    Аудио
    Идентификатор : 2
    Формат : AC-3
    Формат/Информация : Audio Coding 3
    Коммерческое название : Dolby Digital
    Идентификатор кодека : A_AC3
    Продолжительность : 1 ч. 27 м.
    Вид битрейта : Постоянный
    Битрейт : 448 Кбит/сек
    Каналы : 6 каналов
    ChannelLayout : L R C LFE Ls Rs
    Частота : 48, 0 КГц
    Частота кадров : 31, 250 кадров/сек (1536 SPF)
    Метод сжатия : С потерями
    Размер потока : 279 Мбайт (8%)
    Заголовок : Оригинал (AC-3, Постоянный, 448 Кбит/сек, 6 каналов, 48, 0 КГц)
    Язык : Russian
    ServiceKind/String : Complete Main
    Default : Да
    Forced : Нет
    Меню
    00: 00: 00.000 : : Глава 01
    00: 03: 10.190 : : Глава 02
    00: 11: 23.683 : : Глава 03
    00: 14: 34.874 : : Глава 04
    00: 26: 39.598 : : Глава 05
    00: 31: 30.889 : : Глава 06
    00: 38: 07.285 : : Глава 07
    00: 43: 13.591 : : Глава 08
    00: 51: 36.093 : : Глава 09
    01: 04: 49.886 : : Глава 10
    01: 14: 44.480 : : Глава 11
    01: 23: 28.003 : : Глава 12

    Скриншоты для ознакомления



    Все одноименные релизы в Клубе
    Время раздачи: 24/7 до первых 10 скачавших, потом ухожу с раздачи

    Онлайн видео Покровские ворота (1982) BDRip [H.264] (серии 1



    Полосатый рейс (1961) BDRip [H.264] [Реставрация КП] торрент скачать бесплатно
    Рейтинг →
     (голосов: 1, оценка 3/5, голосовать можно 1 раз )

    Другие торренты по теме:

  • Полосатый рейс (1961) BDRip [H.264]
  • Полосатый рейс (1961) BDRip [H.264 / 1080p-LQ] скачать через торрент бесплатно
  • Полосатый рейс (1961) WEB-DL [H.264] [MP4|1920x1080]
  • Полосатый рейс (1961) BDRip [1080p] ATV


    • Комментарии (0):

      Информация

      Информация

        Посетители, находящиеся в группе Гости, не могут оставлять комментарии в данной новости.

        ↓ Меню




        ↓ Опрос

        Вы добавили сайт в закладки?
        Да
        Нет


        Популярное