.
Авторизация | Регистрация
bitok.xyz
Торрент скачать бесплатно Фильмы торрент скачать Наш дом (1965) DVDRip [H.264] торрент скачать бесплатно


    Наш дом (1965) DVDRip [H.264] торрент скачать бесплатно

    Дата: 29-01-2020, 05:00 | .torrent скачали: 5

    Наш дом (1965) DVDRip [H.264]Производство: СССР/Мосфильм
    Жанр: Драма
    Режиссер: Василий Пронин

    Актеры
    Анатолий Папанов, Нина Сазонова, Иван Лапиков, Вадим Бероев, Алексей Локтев, Геннадий Бортников, Александр Сесин, Нелли Корниенко, Юрий Кузьменков, Владимир Высоцкий

    Описание

    Четыре сына выросли в доме Ивановых. И вот для трех старших настала пора начинать самостоятельную жизнь, покидать родное гнездо.
    Казалось бы, обычное дело — но как трудно родителям сжиться с их уходом, сколько драматических ситуаций возникает в семье в это время, сколько рождается глубоких переживаний — особенно в душе младшего сына, тринадцатилетнего Сергея…

    Возраст: 6+ (зрителям, достигшим 6 лет)
    Продолжительность: 01: 32: 51
    Качество видео: DVDRip
    Видео: AVC/H.264, 704х384, ~1950 Kbps
    Аудио: AC3, 2 ch, 192 kbps
    Общее
    Уникальный идентификатор : 231696754276342803697019313399773601311 (0xAE4F2BF50B1593248F12EDEB120D1E1F)
    Полное имя : D: Советские фильмыПапанов Анатолий ДмитриевичНаш домНаш дом. 1957.mkv
    Формат : Matroska
    Версия формата : Version 4/Version 2
    Размер файла : 1, 39 Гбайт
    Продолжительность : 1 ч. 32 м.
    Общий поток : 2144 Кбит/сек
    Название фильма : Release for Topmost
    Дата кодирования : UTC 2020-01-26 12: 58: 34
    Программа кодирования : mkvmerge v6.2.0 (\'Promised Land\') built on Apr 28 2013 12: 22: 01
    Библиотека кодирования : libebml v1.3.0 + libmatroska v1.4.0
    Attachment : Yes
    Видео
    Идентификатор : 1
    Формат : AVC
    Формат/Информация : Advanced Video Codec
    Профиль формата : High@L4.1
    Параметр CABAC формата : Да
    Параметр ReFrames формата : 12 кадров
    Идентификатор кодека : V_MPEG4/ISO/AVC
    Продолжительность : 1 ч. 32 м.
    Битрейт : 1950 Кбит/сек
    Ширина : 704 пикселя
    Высота : 384 пикселя
    Соотношение сторон : 1, 85: 1
    Режим частоты кадров : Постоянный
    Частота кадров : 25, 000 кадров/сек
    Цветовое пространство : YUV
    Субдискретизация насыщенности : 4: 2: 0
    Битовая глубина : 8 бит
    Тип развёртки : Прогрессивная
    Бит/(Пиксели*Кадры) : 0.289
    Размер потока : 1, 24 Гбайт (89%)
    Заголовок : Наш дом. 1957 /Release for Topmost/
    Библиотека кодирования : x264 core 146 r2538 121396c
    Настройки программы : cabac=1/ref=12/deblock=1: -3: -3/analyse=0x3: 0x113/me=umh/subme=11/psy=1/psy_rd=1.00: 0.15/mixed_ref=1/me_range=32/chroma_me=1/trellis=2/8x8dct=1/cqm=0/deadzone=21, 11/fast_pskip=0/chroma_qp_offset=-3/threads=12/lookahead_threads=2/sliced_threads=0/nr=0/decimate=0/interlaced=0/bluray_compat=0/constrained_intra=0/bframes=8/b_pyramid=2/b_adapt=2/b_bias=0/direct=1/weightb=1/open_gop=0/weightp=2/keyint=240/keyint_min=23/scenecut=40/intra_refresh=0/rc_lookahead=40/rc=2pass/mbtree=0/bitrate=1950/ratetol=1.0/qcomp=0.60/qpmin=0/qpmax=69/qpstep=4/cplxblur=20.0/qblur=0.5/vbv_maxrate=14000/vbv_bufsize=14000/nal_hrd=none/filler=0/ip_ratio=1.40/pb_ratio=1.30/aq=1: 0.90
    Язык : Russian
    Default : Да
    Forced : Нет
    Аудио
    Идентификатор : 2
    Формат : AC-3
    Формат/Информация : Audio Coding 3
    Расширение режима : CM (complete main)
    Параметр Endianness формата : Big
    Идентификатор кодека : A_AC3
    Продолжительность : 1 ч. 32 м.
    Вид битрейта : Постоянный
    Битрейт : 192 Кбит/сек
    Каналы : 2 канала
    Расположение каналов : Front: L R
    Частота : 48, 0 КГц
    Битовая глубина : 16 бит
    Метод сжатия : С потерями
    Размер потока : 128 Мбайт (9%)
    Язык : Russian
    Default : Да
    Forced : Нет

    Скриншоты для ознакомления



    Все одноименные релизы в Клубе
    Время раздачи: 24/7 до 5 скачавших (до появления первых 3-5 скачавших)

    Онлайн видео Покровские ворота (1982) BDRip [H.264] (серии 1



    Наш дом (1965) DVDRip [H.264] торрент скачать бесплатно
    Рейтинг →
     (голосов: 1, оценка 3/5, голосовать можно 1 раз )

    Другие торренты по теме:

  • Новомученики (2012) DVDRip [фильмы 1-4 из 4]
  • Сборник фильмов с участием Дины Дурбин / Deanna Durbin Sweetheart Pack (1936-1947) DVDRip (фильмы 1-6 из 6)
  • Вавилон 5 / Babylon 5 (1993-2007) DVDRip [H.264] (сезон 1-5, серии 1-110 из 110 + Крестовый поход + полнометражные фильмы) ТВ-6
  • Первые фильмы братьев Люмьер / The Lumiere Brothers’ First Films (1996) DVDRip [H.264] [hand made colored]
  • Первые фильмы братьев Люмьер / The Lumiere Brothers’ First Films (1996) DVDRip [H.264] [hand made colored]
  • «Коричневые» в цвете: Частные цветные фильмы из Третьего Рейха / Die Braunen in Farbe: Private Farbfilme aus dem Dritten Reich (2007, 2010) DVDRip [DE / RU Sub]
  • Фильмы Владимира Кобрина (1982-1994) DVDRip
  • Шикин А.С. | Боевая стрельба из пистолета. Фильмы 1 и 2 [2005] DVDRip


    • Комментарии (0):

      Информация

      Информация

        Посетители, находящиеся в группе Гости, не могут оставлять комментарии в данной новости.

        ↓ Меню




        ↓ Опрос

        Вы добавили сайт в закладки?
        Да
        Нет


        Популярное