.
Авторизация | Регистрация
bitok.xyz
Торрент скачать бесплатно Фильмы торрент скачать Гинденбург / The Hindenburg (1975) HDRip [H.265] [10-bit] торрент скачать бесплатно


    Гинденбург / The Hindenburg (1975) HDRip [H.265] [10-bit] торрент скачать бесплатно

    Дата: 29-01-2020, 05:00 | .torrent скачали: 0

    Гинденбург / The Hindenburg (1975) HDRip [H.265] [10-bit]Производство: США/Universal Pictures, The Filmakers Group
    Жанр: драма, исторический
    Режиссер: Роберт Уайз

    Актеры
    Джордж К. Скотт, Энн Бэнкрофт, Уильям Этертон, Рой Тиннес, Гиг Янг, Бёрджесс Мередит, Чарльз Дёрнинг, Ричард А. Дайсарт, Роберт Клэри, Рене Обержонуа

    Описание

    Фильм рассказывает о гибели самого крупного воздушного судна двадцатого века, огромного дирижабля-авианосца Гинденбург, построенного как символ новой гитлеровской Германии. Под командованием Макса Прусса в 1937 году дирижабль отправился в своё последнее путешествие из Германии в Америку. Желая продемонстрировать американцам свою мощь, показав им Гинденбург, никто из немецкого командования и не подозревал, что на его борту находится саботажник, планирующий взорвать воздушную гордость Германии.

    Возраст: 12+ (зрителям, достигшим 12 лет)
    Рейтинг MPAA: PG (рекомендуется присутствие родителей)
    Продолжительность: 02: 05: 23
    Качество видео: HDRip
    Перевод: Профессиональный многоголосый
    Субтитры: английские (полные)
    Видео: HEVC/H.265, 1024x436, 2002 Kbps
    Аудио 1 : AC3, 2 ch, 160 Kbps | Русский
    Аудио 2 : AC3, 2 ch, 160 Kbps | АнглийскийОбщее
    Уникальный идентификатор : 253549373393118989686024369091821095793 (0xBEBFD54368EC80BEB5CEE7009196CB71)
    Полное имя : The.Hindenburg.1975.HDRip.HEVC.mkv
    Формат : Matroska
    Версия формата : Version 4/Version 2
    Размер файла : 2, 04 Гбайт
    Продолжительность : 2 ч. 5 м.
    Общий поток : 2324 Кбит/сек
    Название фильма : The Hindenburg (1975)
    Дата кодирования : UTC 2020-01-28 13: 17: 57
    Программа кодирования : mkvmerge v7.8.0 (\'River Man\') 32bit built on Apr 3 2015 12: 11: 22
    Библиотека кодирования : libebml v1.3.1 + libmatroska v1.4.2/Lavf58.20.100
    ENCODING_INFO : MATROSKA, WEBM MKV 1024 x 576
    Видео
    Идентификатор : 1
    Формат : HEVC
    Формат/Информация : High Efficiency Video Coding
    Профиль формата : Main10@L4.1@High
    Идентификатор кодека : V_MPEGH/ISO/HEVC
    Продолжительность : 2 ч. 5 м.
    Битрейт : 2002 Кбит/сек
    Ширина : 1024 пикселя
    Высота : 436 пикселей
    Соотношение сторон : 2, 35: 1
    Режим частоты кадров : Постоянный
    Частота кадров : 23, 976 (24000/1001) кадра/сек
    Цветовое пространство : YUV
    Субдискретизация насыщенности : 4: 2: 0
    Битовая глубина : 10 бит
    Бит/(Пиксели*Кадры) : 0.187
    Размер потока : 1, 75 Гбайт (86%)
    Язык : English
    Default : Да
    Forced : Нет
    ENCODING_INFO : H264 HEVC NVENC VBR 2000kbps HQ
    Аудио #1
    Идентификатор : 2
    Формат : AC-3
    Формат/Информация : Audio Coding 3
    Параметр Endianness формата : Big
    Идентификатор кодека : A_AC3
    Продолжительность : 2 ч. 5 м.
    Вид битрейта : Постоянный
    Битрейт : 160 Кбит/сек
    Каналы : 2 канала
    Расположение каналов : Front: L R
    Частота : 48, 0 КГц
    Частота кадров : 31, 250 кадров/сек (1536 SPF)
    Битовая глубина : 16 бит
    Метод сжатия : С потерями
    Размер потока : 143 Мбайт (7%)
    Заголовок : MVO
    Язык : Russian
    ServiceKind/String : Complete Main
    Default : Да
    Forced : Нет
    ENCODING_INFO : AC3 AC3 CBR 160kbps
    Аудио #2
    Идентификатор : 3
    Формат : AC-3
    Формат/Информация : Audio Coding 3
    Параметр Endianness формата : Big
    Идентификатор кодека : A_AC3
    Продолжительность : 2 ч. 5 м.
    Вид битрейта : Постоянный
    Битрейт : 160 Кбит/сек
    Каналы : 2 канала
    Расположение каналов : Front: L R
    Частота : 48, 0 КГц
    Частота кадров : 31, 250 кадров/сек (1536 SPF)
    Битовая глубина : 16 бит
    Метод сжатия : С потерями
    Размер потока : 143 Мбайт (7%)
    Заголовок : original
    Язык : English
    ServiceKind/String : Complete Main
    Default : Нет
    Forced : Нет
    ENCODING_INFO : DTS AC3 CBR 160kbps
    Текст
    Идентификатор : 4
    Формат : UTF-8
    Идентификатор кодека : S_TEXT/UTF8
    Идентификатор кодека/Информация : UTF-8 Plain Text
    Продолжительность : 2 ч. 3 м.
    Битрейт : 61 бит/сек
    ElementCount : 1622
    Размер потока : 55, 7 Кбайт (0%)
    Заголовок : full
    Язык : English
    Default : Да
    Forced : Нет
    ENCODING_INFO : SUBRIP COPY Быстрое
    Меню
    00: 00: 00.000 : : Chapter 1
    00: 10: 00.224 : : Chapter 2
    00: 19: 32.462 : : Chapter 3
    00: 28: 36.881 : : Chapter 4
    00: 39: 21.734 : : Chapter 5
    00: 50: 04.167 : : Chapter 6
    01: 00: 03.224 : : Chapter 7
    01: 09: 42.051 : : Chapter 8
    01: 19: 40.901 : : Chapter 9
    01: 31: 33.362 : : Chapter 10
    01: 40: 41.326 : : Chapter 11
    01: 48: 38.678 : : Chapter 12
    02: 00: 54.247 : : Chapter 13

    Скриншоты для ознакомления



    Все одноименные релизы в Клубе
    Время раздачи: 19 - 23 (до появления первых 3-5 скачавших)

    Онлайн видео Гинденбург



    Гинденбург / The Hindenburg (1975) HDRip [H.265] [10-bit] торрент скачать бесплатно
    Рейтинг →
     (голосов: 1, оценка 3/5, голосовать можно 1 раз )

    Другие торренты по теме:

  • Гинденбург / The Hindenburg (1975) HDTVRip скачать через торрент бесплатно
  • Гинденбург и Гитлер / Hindenburg & Hitler (2013) SATRip скачать через торрент бесплатно
  • Гинденбург: Последний полет / Hindenburg (2011) BDRip [H.265 / 1080p] [10-bit]
  • Гинденбург: Титаник небес / Hindenburg: Titanic of the Skies (2007) IPTVRip
  • Гинденбург / The Hindenburg (1975) BDRip [H.264 / 1080p]
  • Гинденбург: Последний полет / Hindenburg (2011) BDRip [H.265 / 720p] [10-bit] [PR]
  • Гинденбург: Последний полет / Hindenburg (2011) BDRip [H.265] [10-bit] [PR]


    • Комментарии (0):

      Информация

      Информация

        Посетители, находящиеся в группе Гости, не могут оставлять комментарии в данной новости.

        ↓ Меню




        ↓ Опрос

        Вы добавили сайт в закладки?
        Да
        Нет


        Популярное