.
Авторизация | Регистрация
bitok.xyz
Торрент скачать бесплатно Фильмы торрент скачать Я люблю тебя (2019) SATRip торрент скачать бесплатно


    Я люблю тебя (2019) SATRip торрент скачать бесплатно

    Дата: 29-01-2020, 05:00 | .torrent скачали: 2

    Я люблю тебя (2019) SATRipПроизводство: Казахстан
    Жанр: Мелодрама
    Режиссер: Ернар Нургалиев

    Актеры
    Сара Амангельды, Берик Айтжанов, Жандос Айбасов, Шарип Серик

    Описание

    Фильм про любовь подпольного боксера и начинающей певицы. После случайного знакомства на улице их жизни перестают быть прежними. Но на пути к их счастью стоит властная мать Сары, у которой свои планы на будущее дочери.

    Релиз от: Алехаndr
    Продолжительность: 01: 14: 35
    Качество видео: SATRip
    Язык озвучки: русский
    Субтитры: казахские (хардсаб)
    Видео: Xvid, 720x294 (2.35: 1), ~1200 Kbps
    Аудио: AC3, 2 ch, 192 Kbps
    Общее
    Полное имя : D: Я люблю тебя (2019).by.Алехаndr.avi
    Формат : AVI
    Формат/Информация : Audio Video Interleave
    Размер файла : 750 Мбайт
    Продолжительность : 1 ч. 14 м.
    Общий поток : 1405 Кбит/сек
    Программа кодирования : Lavf58.20.100
    Видео
    Идентификатор : 0
    Формат : MPEG-4 Visual
    Профиль формата : Advanced Simple@L5
    Настройки формата : BVOP2
    Параметр BVOP формата : 2
    Параметр QPel формата : Нет
    Параметр GMC формата : Без точки перехода
    Параметр матрицы формата : Default (MPEG)
    Идентификатор кодека : XVID
    Идентификатор кодека/Подсказка : XviD
    Продолжительность : 1 ч. 14 м.
    Битрейт : 1203 Кбит/сек
    Ширина : 720 пикселей
    Высота : 294 пикселя
    Соотношение сторон : 2, 35: 1
    Частота кадров : 25, 000 кадров/сек
    Цветовое пространство : YUV
    Субдискретизация насыщенности : 4: 2: 0
    Битовая глубина : 8 бит
    Тип развёртки : Прогрессивная
    Метод сжатия : С потерями
    Бит/(Пиксели*Кадры) : 0.227
    Размер потока : 642 Мбайт (86%)
    Библиотека кодирования : XviD 67
    Аудио
    Идентификатор : 1
    Формат : AC-3
    Формат/Информация : Audio Coding 3
    Коммерческое название : Dolby Digital
    Идентификатор кодека : 2000
    Продолжительность : 1 ч. 14 м.
    Вид битрейта : Постоянный
    Битрейт : 192 Кбит/сек
    Каналы : 2 канала
    ChannelLayout : L R
    Частота : 44, 1 КГц
    Частота кадров : 28, 711 кадров/сек (1536 SPF)
    Битовая глубина : 16 бит
    Метод сжатия : С потерями
    Размер потока : 102 Мбайт (14%)
    Выравнивание : Соединение по промежуткам
    Продолжительность промежутка : 35 мс. (0, 87 видеокадр)
    ServiceKind/String : Complete Main

    Скриншоты для ознакомления



    Все одноименные релизы в Клубе
    Время раздачи: 24/7 (круглосуточно) (до появления первых 3-5 скачавших)

    Онлайн видео Голая графиня



    Я люблю тебя (2019) SATRip торрент скачать бесплатно
    Рейтинг →
     (голосов: 1, оценка 4/5, голосовать можно 1 раз )

    Другие торренты по теме:

  • Всем парням: P.S. Я люблю тебя / To All the Boys: P.S. I Still Love You (2020) WEB-DL [H.264 / 1080p-LQ] [MVO]
  • Александр Пономарев - Я люблю тебя / Олександр Пономарьов - Я люблю тебе (2016) WEB-DL [h.264 / 1080p-LQ]
  • Рио, я люблю тебя / Rio, Eu Te Amo (2014) WEB-DLRip [Line]
  • Люблю тебя, чувак / I Love You, Man (2009) BDRip
  • Рио, я люблю тебя / Rio, Eu Te Amo (2014) WEB-DLRip [576p] iPad скачать через торрент бесплатно
  • Sukitte Ii na yo. / Say "I Love You" / Скажи: «Я люблю тебя» [2012, TV, 13 ep] BDRip Hi10p 720p Raw+Rus x4(ext) скачать через торрент бесплатно
  • Я люблю тебя, мой мужчина / Seni Seviyorum Adamim (2014) WEB-DLRip [VO] скачать через торрент бесплатно
  • Я люблю тебя, не трогай меня / I Love You, Dont Touch Me! (1997) HDTV [H.264 / 1080i] скачать через торрент бесплатно


    • Комментарии (0):

      Информация

      Информация

        Посетители, находящиеся в группе Гости, не могут оставлять комментарии в данной новости.

        ↓ Меню




        ↓ Опрос

        Вы добавили сайт в закладки?
        Да
        Нет


        Популярное