.
Авторизация | Регистрация
bitok.xyz
Торрент скачать бесплатно Фильмы торрент скачать Цветок кактуса / Cactus Flower (1969) WEB-DLRip [H.264] торрент скачать бесплатно


    Цветок кактуса / Cactus Flower (1969) WEB-DLRip [H.264] торрент скачать бесплатно

    Дата: 29-01-2020, 05:00 | .torrent скачали: 9

    Цветок кактуса / Cactus Flower (1969) WEB-DLRip [H.264]Производство: США/Columbia Pictures Corporation, Frankovich Productions
    Жанр: Мелодрама, Комедия
    Режиссер: Джин Сэкс
    Продюсер: М.Дж. Франкович

    Актеры
    Уолтер Мэттау, Ингрид Бергман, Голди Хоун, Джек Уэстон, Рик Ленц, Вито Скотти, Ирен Херви, Ив Брюс, Ирвин Чарон, Мэттью Сакс

    Описание

    Джулиан Уинстон, смешной холостяк — дантист, который под влиянием жизненных обстоятельств попадает в различные комические ситуации. Уинстон встречается с головокружительной блондинкой Тони, обманывая её и говоря, что у него есть жена и трое детей. Но когда он узнает, что она пыталась совершить самоубийство из-за него, твердо обещает жениться на ней. Тони добивается встречи с женой своего будущего мужа. В роли которой, по просьбе Джулиана, выступает его медсестра — Стефани. Схема игры, разработанная Уинстоном приводит к непредсказуемым пересечениям и смешным сюрпризам для каждого…

    Возраст: 12+ (зрителям, достигшим 12 лет)
    Рейтинг MPAA: PG (рекомендуется присутствие родителей)
    Релиз от: Охрана (NNMCLUB)
    Продолжительность: 01: 43: 46
    Качество видео: WEB-DLRip
    Перевод: Дублированный, многоголосый профессиональный, двуголосый профессиональный, авторский
    Субтитры: Английские(Full, SDH)
    Видео: AVC/H.264, 1024x576, ~2950 Kbps
    Аудио 1: AC3, 2 ch, 192 Kbps, 48.0 kHz – Русский Dub, киностудия Мосфильм + вставки MVO
    Аудио 2: AC3, 2 ch, 192 Kbps, 48.0 kHz – Русский MVO, DVD Classic
    Аудио 3: AC3, 2 ch, 192 Kbps, 48.0 kHz – Русский DVO, НТВ+
    Аудио 4: AC3, 2 ch, 192 Kbps, 48.0 kHz – Русский DVO, Film Prestige
    Аудио 5: AC3, 2 ch, 192 Kbps, 48.0 kHz – Русский AVO, A. Гаврилов
    Аудио 6: AC3, 2 ch, 192 Kbps, 48.0 kHz – Английский
    Общее
    Уникальный идентификатор : 245900696424226923274346321990203663237 (0xB8FEC05F9C7020DFB866E3B519E6E385)
    Полное имя : B: DownloadsЦветок кактуса. 1969. NNMCLUB.mkv
    Формат : Matroska
    Версия формата : Version 4/Version 2
    Размер файла : 2, 98 Гбайт
    Продолжительность : 1 ч. 43 м.
    Общий поток : 4105 Кбит/сек
    Дата кодирования : UTC 2020-01-27 09: 58: 29
    Программа кодирования : mkvmerge v7.9.0 (\'Birds\') 64bit
    Библиотека кодирования : libebml v1.3.1 + libmatroska v1.4.2
    Видео
    Идентификатор : 1
    Формат : AVC
    Формат/Информация : Advanced Video Codec
    Профиль формата : High@L4.1
    Настройки формата : CABAC/12 Ref Frames
    Параметр CABAC формата : Да
    Параметр RefFrames формата : 12 кадров
    Идентификатор кодека : V_MPEG4/ISO/AVC
    Продолжительность : 1 ч. 43 м.
    Битрейт : 2950 Кбит/сек
    Ширина : 1024 пикселя
    Высота : 576 пикселей
    Соотношение сторон : 16: 9
    Режим частоты кадров : Постоянный
    Частота кадров : 23, 976 (24000/1001) кадра/сек
    Цветовое пространство : YUV
    Субдискретизация насыщенности : 4: 2: 0
    Битовая глубина : 8 бит
    Тип развёртки : Прогрессивная
    Бит/(Пиксели*Кадры) : 0.209
    Размер потока : 2, 14 Гбайт (72%)
    Заголовок : Cactus Flower
    Библиотека кодирования : x264 core 146 r2538 121396c
    Настройки программы : cabac=1/ref=12/deblock=1: -1: -1/analyse=0x3: 0x113/me=umh/subme=10/psy=1/psy_rd=1.00: 0.10/mixed_ref=1/me_range=32/chroma_me=1/trellis=2/8x8dct=1/cqm=0/deadzone=21, 11/fast_pskip=0/chroma_qp_offset=-3/threads=6/lookahead_threads=1/sliced_threads=0/nr=0/decimate=0/interlaced=0/bluray_compat=0/constrained_intra=0/bframes=7/b_pyramid=2/b_adapt=2/b_bias=0/direct=3/weightb=1/open_gop=0/weightp=2/keyint=250/keyint_min=25/scenecut=40/intra_refresh=0/rc_lookahead=60/rc=2pass/mbtree=1/bitrate=2950/ratetol=1.0/qcomp=0.60/qpmin=0/qpmax=69/qpstep=4/cplxblur=20.0/qblur=0.5/vbv_maxrate=14000/vbv_bufsize=14000/nal_hrd=none/filler=0/ip_ratio=1.40/aq=1: 1.00
    Язык : English
    Default : Да
    Forced : Нет
    Аудио #1
    Идентификатор : 2
    Формат : AC-3
    Формат/Информация : Audio Coding 3
    Идентификатор кодека : A_AC3
    Продолжительность : 1 ч. 43 м.
    Вид битрейта : Постоянный
    Битрейт : 192 Кбит/сек
    Каналы : 2 канала
    Расположение каналов : Front: L R
    Частота : 48, 0 КГц
    Частота кадров : 31, 250 кадров/сек (1536 SPF)
    Битовая глубина : 16 бит
    Метод сжатия : С потерями
    Размер потока : 143 Мбайт (5%)
    Заголовок : Дублированный, Мосфильм
    Язык : Russian
    ServiceKind/String : Complete Main
    Default : Да
    Forced : Нет
    Аудио #2
    Идентификатор : 3
    Формат : AC-3
    Формат/Информация : Audio Coding 3
    Идентификатор кодека : A_AC3
    Продолжительность : 1 ч. 43 м.
    Вид битрейта : Постоянный
    Битрейт : 192 Кбит/сек
    Каналы : 2 канала
    Расположение каналов : Front: L R
    Частота : 48, 0 КГц
    Частота кадров : 31, 250 кадров/сек (1536 SPF)
    Битовая глубина : 16 бит
    Метод сжатия : С потерями
    Размер потока : 143 Мбайт (5%)
    Заголовок : Многоголосый закадровый, DVD Classic
    Язык : Russian
    ServiceKind/String : Complete Main
    Default : Нет
    Forced : Нет
    Аудио #3
    Идентификатор : 4
    Формат : AC-3
    Формат/Информация : Audio Coding 3
    Идентификатор кодека : A_AC3
    Продолжительность : 1 ч. 43 м.
    Вид битрейта : Постоянный
    Битрейт : 192 Кбит/сек
    Каналы : 2 канала
    Расположение каналов : Front: L R
    Частота : 48, 0 КГц
    Частота кадров : 31, 250 кадров/сек (1536 SPF)
    Битовая глубина : 16 бит
    Метод сжатия : С потерями
    Размер потока : 143 Мбайт (5%)
    Заголовок : Двухголосый закадровый, НТВ+
    Язык : Russian
    ServiceKind/String : Complete Main
    Default : Нет
    Forced : Нет
    Аудио #4
    Идентификатор : 5
    Формат : AC-3
    Формат/Информация : Audio Coding 3
    Идентификатор кодека : A_AC3
    Продолжительность : 1 ч. 43 м.
    Вид битрейта : Постоянный
    Битрейт : 192 Кбит/сек
    Каналы : 2 канала
    Расположение каналов : Front: L R
    Частота : 48, 0 КГц
    Частота кадров : 31, 250 кадров/сек (1536 SPF)
    Битовая глубина : 16 бит
    Метод сжатия : С потерями
    Размер потока : 143 Мбайт (5%)
    Заголовок : Двухголосый закадровый, Film Prestige
    Язык : Russian
    ServiceKind/String : Complete Main
    Default : Нет
    Forced : Нет
    Аудио #5
    Идентификатор : 6
    Формат : AC-3
    Формат/Информация : Audio Coding 3
    Идентификатор кодека : A_AC3
    Продолжительность : 1 ч. 43 м.
    Вид битрейта : Постоянный
    Битрейт : 192 Кбит/сек
    Каналы : 2 канала
    Расположение каналов : Front: L R
    Частота : 48, 0 КГц
    Частота кадров : 31, 250 кадров/сек (1536 SPF)
    Битовая глубина : 16 бит
    Метод сжатия : С потерями
    Размер потока : 143 Мбайт (5%)
    Заголовок : Авторский, А. Гаврилов
    Язык : Russian
    ServiceKind/String : Complete Main
    Default : Нет
    Forced : Нет
    Аудио #6
    Идентификатор : 7
    Формат : AC-3
    Формат/Информация : Audio Coding 3
    Идентификатор кодека : A_AC3
    Продолжительность : 1 ч. 43 м.
    Вид битрейта : Постоянный
    Битрейт : 192 Кбит/сек
    Каналы : 2 канала
    Расположение каналов : Front: L R
    Частота : 48, 0 КГц
    Частота кадров : 31, 250 кадров/сек (1536 SPF)
    Битовая глубина : 16 бит
    Метод сжатия : С потерями
    Размер потока : 143 Мбайт (5%)
    Заголовок : Английский
    Язык : English
    ServiceKind/String : Complete Main
    Default : Нет
    Forced : Нет
    Текст #1
    Идентификатор : 8
    Формат : UTF-8
    Идентификатор кодека : S_TEXT/UTF8
    Идентификатор кодека/Информация : UTF-8 Plain Text
    Продолжительность : 1 ч. 43 м.
    Битрейт : 94 бит/сек
    ElementCount : 2030
    Размер потока : 71, 7 Кбайт (0%)
    Заголовок : Full
    Язык : English
    Default : Нет
    Forced : Нет
    Текст #2
    Идентификатор : 9
    Формат : UTF-8
    Идентификатор кодека : S_TEXT/UTF8
    Идентификатор кодека/Информация : UTF-8 Plain Text
    Продолжительность : 1 ч. 43 м.
    Битрейт : 97 бит/сек
    ElementCount : 2128
    Размер потока : 73, 6 Кбайт (0%)
    Заголовок : SDH
    Язык : English
    Default : Нет
    Forced : Нет

    Скриншоты для ознакомления




    Все одноименные релизы в Клубе
    Время раздачи: с 13: 00 до 01: 00 МСК, выходные круглосуточно (до появления первых 3-5 скачавших)

    Онлайн видео Цветок кактуса



    Цветок кактуса / Cactus Flower (1969) WEB-DLRip [H.264] торрент скачать бесплатно
    Рейтинг →
     (голосов: 1, оценка 3/5, голосовать можно 1 раз )

    Другие торренты по теме:

  • Цветок кактуса / Cactus Flower (1969) DVDRip [H.264]
  • Цветок кактуса / Cactus Flower (1969) WEB-DLRip [H.264 / 1080p]


    • Комментарии (0):

      Информация

      Информация

        Посетители, находящиеся в группе Гости, не могут оставлять комментарии в данной новости.

        ↓ Меню




        ↓ Опрос

        Вы добавили сайт в закладки?
        Да
        Нет


        Популярное