.
Авторизация | Регистрация
bitok.xyz
Торрент скачать бесплатно Фильмы торрент скачать Белые ночи / Le notti bianche (1957) BDRip H.264] торрент скачать бесплатно


    Белые ночи / Le notti bianche (1957) BDRip H.264] торрент скачать бесплатно

    Дата: 29-01-2020, 05:00 | .torrent скачали: 3

    Белые ночи / Le notti bianche (1957) BDRip H.264]Производство: Италия, Франция/Cinematografica Associati (CI.AS.), Rank Film, Vides Cinematografica
    Жанр: Драма, мелодрама
    Режиссер: Лукино Висконти

    Актеры
    Мария Шелл, Марчелло Мастроянни, Жан Маре, Елена Фанчера, Анджело Галасси, Ренато Терра, Коррадо Пани и др.

    Описание

    По мотивам одноименной повести Ф.М. Достоевского.
    Молодой итальянец Марио встречает русскую девушку Наталью с удивительно милым лицом и светлым взором и безумно влюбляется в нее. Бабушка Натальи, почти слепая содержательница меблированных комнат, неусыпно и очень строго следит за внучкой. К разочарованию влюбленного Марио, девушка помолвлена с мужчиной средних лет, снимающем комнату в бабушкином пансионате, Тенантом. Он неожиданно покидает город, пообещав Наталье вернуться через год.
    Девушка терпеливо ждет весь год, а влюбленный итальянец, пользуясь отсутствием соперника, открывает героине новый мир. Сердце красавицы разрывается между долгом и новым чувством, овладевшим ею.

    Возраст: 12+ (зрителям, достигшим 12 лет)
    Продолжительность: 01: 41: 46
    Качество видео: BDRip
    Перевод: Многоголосый профессиональный
    Субтитры: Русские, английские, итальянские
    Видео: AVC/H.264, 720x432, ~2040 kbps
    Аудио 1: AC3, 2 ch, 192 kbps - Русский MVO (Film Prestige)
    Аудио 2: AC3, 2 ch, 192 kbps - Итальянский (Оригинал)
    Общее
    Уникальный идентификатор : 237670516298206482098459223747647658840 (0xB2CDAD2A1A00C90E8FFADD269A7E5B58)
    Полное имя : F: Марчелло МастроянниБелые ночи . 1957Белые ночи. 1957.mkv
    Формат : Matroska
    Версия формата : Version 4/Version 2
    Размер файла : 1, 73 Гбайт
    Продолжительность : 1 ч. 41 м.
    Общий поток : 2429 Кбит/сек
    Название фильма : Release for Topmost
    Дата кодирования : UTC 2020-01-26 16: 49: 02
    Программа кодирования : mkvmerge v6.2.0 (\'Promised Land\') built on Apr 28 2013 12: 22: 01
    Библиотека кодирования : libebml v1.3.0 + libmatroska v1.4.0
    Attachment : Yes
    Видео
    Идентификатор : 1
    Формат : AVC
    Формат/Информация : Advanced Video Codec
    Профиль формата : High@L4.1
    Параметр CABAC формата : Да
    Параметр ReFrames формата : 12 кадров
    Идентификатор кодека : V_MPEG4/ISO/AVC
    Продолжительность : 1 ч. 41 м.
    Битрейт : 2042 Кбит/сек
    Ширина : 720 пикселей
    Высота : 432 пикселя
    Соотношение сторон : 1, 667
    Режим частоты кадров : Постоянный
    Частота кадров : 23, 976 кадра/сек
    Цветовое пространство : YUV
    Субдискретизация насыщенности : 4: 2: 0
    Битовая глубина : 8 бит
    Тип развёртки : Прогрессивная
    Бит/(Пиксели*Кадры) : 0.274
    Размер потока : 1, 42 Гбайт (82%)
    Заголовок : Белые ночи. 1957 /Release for Topmost/
    Библиотека кодирования : x264 core 146 r2538 121396c
    Настройки программы : cabac=1/ref=12/deblock=1: -3: -3/analyse=0x3: 0x113/me=umh/subme=11/psy=1/psy_rd=1.00: 0.15/mixed_ref=1/me_range=32/chroma_me=1/trellis=2/8x8dct=1/cqm=0/deadzone=21, 11/fast_pskip=0/chroma_qp_offset=-3/threads=12/lookahead_threads=2/sliced_threads=0/nr=0/decimate=0/interlaced=0/bluray_compat=0/constrained_intra=0/bframes=8/b_pyramid=2/b_adapt=2/b_bias=0/direct=1/weightb=1/open_gop=0/weightp=2/keyint=240/keyint_min=23/scenecut=40/intra_refresh=0/rc_lookahead=40/rc=2pass/mbtree=0/bitrate=2042/ratetol=1.0/qcomp=0.60/qpmin=0/qpmax=69/qpstep=4/cplxblur=20.0/qblur=0.5/vbv_maxrate=14000/vbv_bufsize=14000/nal_hrd=none/filler=0/ip_ratio=1.40/pb_ratio=1.30/aq=1: 0.90
    Язык : Italian
    Default : Да
    Forced : Нет
    Аудио #1
    Идентификатор : 2
    Формат : AC-3
    Формат/Информация : Audio Coding 3
    Расширение режима : CM (complete main)
    Параметр Endianness формата : Big
    Идентификатор кодека : A_AC3
    Продолжительность : 1 ч. 41 м.
    Вид битрейта : Постоянный
    Битрейт : 192 Кбит/сек
    Каналы : 2 канала
    Расположение каналов : Front: L R
    Частота : 48, 0 КГц
    Битовая глубина : 16 бит
    Метод сжатия : С потерями
    Размер потока : 140 Мбайт (8%)
    Заголовок : MVO – Film Prestige
    Язык : Russian
    Default : Да
    Forced : Нет
    Аудио #2
    Идентификатор : 3
    Формат : AC-3
    Формат/Информация : Audio Coding 3
    Расширение режима : CM (complete main)
    Параметр Endianness формата : Big
    Идентификатор кодека : A_AC3
    Продолжительность : 1 ч. 41 м.
    Вид битрейта : Постоянный
    Битрейт : 192 Кбит/сек
    Каналы : 2 канала
    Расположение каналов : Front: L R
    Частота : 48, 0 КГц
    Битовая глубина : 16 бит
    Метод сжатия : С потерями
    Размер потока : 140 Мбайт (8%)
    Заголовок : Original
    Язык : Italian
    Default : Нет
    Forced : Нет
    Текст #1
    Идентификатор : 4
    Формат : UTF-8
    Идентификатор кодека : S_TEXT/UTF8
    Идентификатор кодека/Информация : UTF-8 Plain Text
    Заголовок : Film Prestige
    Язык : Russian
    Default : Нет
    Forced : Нет
    Текст #2
    Идентификатор : 5
    Формат : UTF-8
    Идентификатор кодека : S_TEXT/UTF8
    Идентификатор кодека/Информация : UTF-8 Plain Text
    Заголовок : ThePooh Co
    Язык : Russian
    Default : Нет
    Forced : Нет
    Текст #3
    Идентификатор : 6
    Формат : UTF-8
    Идентификатор кодека : S_TEXT/UTF8
    Идентификатор кодека/Информация : UTF-8 Plain Text
    Заголовок : Criterion
    Язык : English
    Default : Нет
    Forced : Нет
    Текст #4
    Идентификатор : 7
    Формат : UTF-8
    Идентификатор кодека : S_TEXT/UTF8
    Идентификатор кодека/Информация : UTF-8 Plain Text
    Язык : Italian
    Default : Нет
    Forced : Нет
    Меню
    00: 00: 00.000 : en: 01. At Loose Ends
    00: 07: 02.797 : en: 02. The Bridge… At Midnight
    00: 11: 04.122 : en: 03. You Can Trust Me
    00: 17: 33.678 : en: 04. Stood Up
    00: 22: 37.773 : en: 05. A Good Reason
    00: 24: 07.363 : en: 06. Natalia\'s Story
    00: 28: 45.390 : en: 07. A New Tenant
    00: 48: 00.669 : en: 08. The Letter
    00: 57: 20.771 : en: 09. Shame
    01: 06: 21.436 : en: 10. Nightclub
    01: 17: 25.057 : en: 11. Haunted by the Past
    01: 19: 35.104 : en: 12. Mario Finds Trouble
    01: 23: 08.734 : en: 13. You Were Right
    01: 31: 05.085 : en: 14. Snowfall
    01: 36: 41.421 : en: 15. Fleeting Happiness

    Скриншоты для ознакомления



    Все одноименные релизы в Клубе
    Время раздачи: 24/7 до 5 скачавших (до появления первых 3-5 скачавших)

    Онлайн видео Белые ночи



    Белые ночи / Le notti bianche (1957) BDRip H.264] торрент скачать бесплатно
    Рейтинг →
     (голосов: 1, оценка 4/5, голосовать можно 1 раз )

    Другие торренты по теме:

  • Белые ночи почтальона Алексея Тряпицына (2014) HDTVRip
  • Белые ночи почтальона Алексея Тряпицына (2014) HDTV [1080i] скачать через торрент бесплатно
  • Белые ночи почтальона Алексея Тряпицына (2014) HDTVRip [H.264 / 720p-LQ] скачать через торрент бесплатно
  • Белые ночи почтальона Алексея Тряпицына (2014) HDTVRip
  • Белые ночи (1959) DVDRip [H.264] скачать через торрент бесплатно
  • Белые ночи почтальона Алексея Тряпицына (2014) SATRip скачать через торрент бесплатно
  • Фёдор Михайлович Достоевский | Белые ночи [сборник] (1987) [PDF, DJVU] скачать через торрент бесплатно
  • Абдурахман Абсалямов | Белые ночи (1985) [FB2]


    • Комментарии (0):

      Информация

      Информация

        Посетители, находящиеся в группе Гости, не могут оставлять комментарии в данной новости.

        ↓ Меню




        ↓ Опрос

        Вы добавили сайт в закладки?
        Да
        Нет


        Популярное