.
Авторизация | Регистрация
bitok.xyz
Торрент скачать бесплатно Фильмы торрент скачать Zомбилэнд: Контрольный выстрел / Zombieland: Double Tap (2019) HDRip [H.265] [10-bit] торрент скачать бесплатно


    Zомбилэнд: Контрольный выстрел / Zombieland: Double Tap (2019) HDRip [H.265] [10-bit] торрент скачать бесплатно

    Дата: 30-01-2020, 05:00 | .torrent скачали: 0

    Zомбилэнд: Контрольный выстрел / Zombieland: Double Tap (2019) HDRip [H.265] [10-bit]Производство: США/Columbia Pictures, Pariah
    Жанр: Ужасы, боевик, комедия
    Режиссер: Рубен Фляйшер

    Актеры
    Джесси Айзенберг, Вуди Харрельсон, Эмма Стоун, Эбигейл Бреслин, Зои Дойч, Розарио Доусон, Эван Джогиа, Билл Мюррей, Дэн Эйкройд, Люк Уилсон

    Описание

    Беспощадная и бесстрашная четверка охотников на зомби продолжает свое путешествие в глубь страны. На этот раз им предстоит сразиться не только с новыми видами живых мертвецов, но и вступить в схватку с другими выжившими, которые настроены совсем не дружелюбно. Кроме того, в собственных рядах охотников намечается серьезный разлад.

    Возраст: 18+ (зрителям, достигшим 18 лет. запрещено для детей)
    Рейтинг MPAA: R (лицам до 17 лет обязательно присутствие взрослого)
    Дата мировой премьеры: 9 октября 2019
    Дата премьеры в России: 24 октября 2019

    Продолжительность: 01: 39: 01
    Качество видео: HDRip
    Перевод: Дублированный (iTunes)
    Субтитры: Русские, английские
    Видео: HEVC/H.265, 1024x428, 1947 Kbps
    Аудио 1 : AC3, 2 ch, 160 Kbps | Русский
    Аудио 2 : AC3, 2 ch, 160 Kbps | АнглийскийОбщее
    Уникальный идентификатор : 133329401302429902392674403564898838140 (0x644E4F0343A0699C638301E78EED667C)
    Полное имя : Zombieland.Double.Tap.2019.HDRip.HEVC.mkv
    Формат : Matroska
    Версия формата : Version 4/Version 2
    Размер файла : 1, 60 Гбайт
    Продолжительность : 1 ч. 39 м.
    Общий поток : 2313 Кбит/сек
    Название фильма : Zombieland Double Tap 2019
    Программа кодирования : XviD4PSP 8.0.91
    Библиотека кодирования : Lavf58.20.100
    ErrorDetectionType : Per level 1
    ENCODING_INFO : MATROSKA, WEBM MKV 1024 x 576
    Видео
    Идентификатор : 1
    Формат : HEVC
    Формат/Информация : High Efficiency Video Coding
    Профиль формата : Main10@L4.1@High
    Идентификатор кодека : V_MPEGH/ISO/HEVC
    Продолжительность : 1 ч. 39 м.
    Битрейт : 1947 Кбит/сек
    Ширина : 1024 пикселя
    Высота : 428 пикселей
    Соотношение сторон : 2, 40: 1
    Режим частоты кадров : Постоянный
    Частота кадров : 23, 976 (24000/1001) кадра/сек
    Цветовое пространство : YUV
    Субдискретизация насыщенности : 4: 2: 0
    Битовая глубина : 10 бит
    Бит/(Пиксели*Кадры) : 0.185
    Размер потока : 1, 35 Гбайт (84%)
    Язык : English
    Default : Да
    Forced : Нет
    Цветовой диапазон : Limited
    Основные цвета : BT.709
    Характеристики трансфера : BT.709
    Коэффициенты матрицы : BT.709
    ENCODING_INFO : H264 HEVC NVENC VBR 2000kbps HQ
    Аудио #1
    Идентификатор : 2
    Формат : AC-3
    Формат/Информация : Audio Coding 3
    Параметр Endianness формата : Big
    Идентификатор кодека : A_AC3
    Продолжительность : 1 ч. 39 м.
    Вид битрейта : Постоянный
    Битрейт : 160 Кбит/сек
    Каналы : 2 канала
    Расположение каналов : Front: L R
    Частота : 48, 0 КГц
    Частота кадров : 31, 250 кадров/сек (1536 SPF)
    Битовая глубина : 16 бит
    Метод сжатия : С потерями
    Размер потока : 113 Мбайт (7%)
    Заголовок : iTunes
    Язык : Russian
    ServiceKind/String : Complete Main
    Default : Да
    Forced : Нет
    ENCODING_INFO : AC3 AC3 CBR 160kbps
    Аудио #2
    Идентификатор : 3
    Формат : AC-3
    Формат/Информация : Audio Coding 3
    Параметр Endianness формата : Big
    Идентификатор кодека : A_AC3
    Продолжительность : 1 ч. 39 м.
    Вид битрейта : Постоянный
    Битрейт : 160 Кбит/сек
    Каналы : 2 канала
    Расположение каналов : Front: L R
    Частота : 48, 0 КГц
    Частота кадров : 31, 250 кадров/сек (1536 SPF)
    Битовая глубина : 16 бит
    Метод сжатия : С потерями
    Размер потока : 113 Мбайт (7%)
    Заголовок : Original
    Язык : English
    ServiceKind/String : Complete Main
    Default : Нет
    Forced : Нет
    ENCODING_INFO : AC3 AC3 CBR 160kbps
    Текст #1
    Идентификатор : 4
    Формат : UTF-8
    Идентификатор кодека : S_TEXT/UTF8
    Идентификатор кодека/Информация : UTF-8 Plain Text
    Заголовок : Forced
    Язык : Russian
    Default : Да
    Forced : Да
    ENCODING_INFO : SUBRIP COPY Быстрое
    Текст #2
    Идентификатор : 5
    Формат : UTF-8
    Идентификатор кодека : S_TEXT/UTF8
    Идентификатор кодека/Информация : UTF-8 Plain Text
    Заголовок : Full
    Язык : Russian
    Default : Нет
    Forced : Нет
    ENCODING_INFO : SUBRIP COPY Быстрое
    Текст #3
    Идентификатор : 6
    Формат : UTF-8
    Идентификатор кодека : S_TEXT/UTF8
    Идентификатор кодека/Информация : UTF-8 Plain Text
    Заголовок : Full v.2
    Язык : Russian
    Default : Нет
    Forced : Нет
    ENCODING_INFO : SUBRIP COPY Быстрое
    Текст #4
    Идентификатор : 7
    Формат : UTF-8
    Идентификатор кодека : S_TEXT/UTF8
    Идентификатор кодека/Информация : UTF-8 Plain Text
    Заголовок : Forced
    Язык : English
    Default : Нет
    Forced : Нет
    ENCODING_INFO : SUBRIP COPY Быстрое
    Текст #5
    Идентификатор : 8
    Формат : UTF-8
    Идентификатор кодека : S_TEXT/UTF8
    Идентификатор кодека/Информация : UTF-8 Plain Text
    Заголовок : Full
    Язык : English
    Default : Нет
    Forced : Нет
    ENCODING_INFO : SUBRIP COPY Быстрое
    Меню
    00: 00: 00.000 : : Chapter 1
    00: 05: 00.675 : : Chapter 2
    00: 11: 08.001 : : Chapter 3
    00: 15: 24.507 : : Chapter 4
    00: 21: 16.192 : : Chapter 5
    00: 29: 15.545 : : Chapter 6
    00: 36: 55.422 : : Chapter 7
    00: 44: 03.015 : : Chapter 8
    00: 50: 12.968 : : Chapter 9
    00: 57: 52.511 : : Chapter 10
    01: 03: 51.870 : : Chapter 11
    01: 06: 50.048 : : Chapter 12
    01: 10: 12.125 : : Chapter 13
    01: 15: 40.119 : : Chapter 14
    01: 23: 45.312 : : Chapter 15
    01: 29: 48.216 : : Chapter 16

    Скриншоты для ознакомления



    Все одноименные релизы в Клубе
    Время раздачи: 19 - 23 (до появления первых 3-5 скачавших)

    Онлайн видео Zомбилэнд: Контрольный выстрел



    Zомбилэнд: Контрольный выстрел / Zombieland: Double Tap (2019) HDRip [H.265] [10-bit] торрент скачать бесплатно
    Рейтинг →
     (голосов: 1, оценка 3/5, голосовать можно 1 раз )

    Другие торренты по теме:

  • Zомбилэнд: Контрольный выстрел / Zombieland: Double Tap (2019) CAMRip [H.264 / 720p-LQ] [MVO] [AD]
  • Zомбилэнд: Контрольный выстрел / Zombieland: Double Tap (2019) WEBRip [H.264 / 1080p-LQ] [ENG / Kor, Ru, Ukr Sub]
  • Zомбилэнд: Контрольный выстрел / Zombieland: Double Tap (2019) WEBRip [ENG / Kor, Ru Sub]
  • Zомбилэнд: Контрольный выстрел / Zombieland: Double Tap (2019) WEBRip [H.264]
  • Zомбилэнд: Контрольный выстрел / Zombieland: Double Tap (2019) HDRip
  • Zомбилэнд: Контрольный выстрел / Zombieland: Double Tap (2019) BDRip [H.264 / 720p] [PR]
  • Zомбилэнд: Контрольный выстрел / Zombieland: Double Tap (2019) BDRip [H.264 / 1080p] [PR]
  • Zомбилэнд: Контрольный выстрел / Zombieland: Double Tap (2019) BDRip [H.264]


    • Комментарии (0):

      Информация

      Информация

        Посетители, находящиеся в группе Гости, не могут оставлять комментарии в данной новости.

        ↓ Меню




        ↓ Опрос

        Вы добавили сайт в закладки?
        Да
        Нет


        Популярное