.
Авторизация | Регистрация
bitok.xyz
Торрент скачать бесплатно Фильмы торрент скачать Толкин / Tolkien (2019) HDRip [H.265] [10-bit] торрент скачать бесплатно


    Толкин / Tolkien (2019) HDRip [H.265] [10-bit] торрент скачать бесплатно

    Дата: 30-01-2020, 05:00 | .torrent скачали: 0

    Толкин / Tolkien (2019) HDRip [H.265] [10-bit]Производство: США, Fox Searchlight Pictures, Chernin Entertainment
    Жанр: Драма, военный, биография
    Режиссер: Доме Карукоски
    Продюсер: Питер Чернин, Дэвид Рэди, Крис Тикье

    Актеры
    Николас Холт, Al Bollands, Kallum Tolkien, Крэйг Робертс, Гарри Джилби, Колм Мини, Лаура Доннелли, Гильермо Бедуорд, Ниа Гвин, Пэм Феррис

    Описание
    Картина рассказывает о том, как молодой писатель, будучи изгоем во время обучения, находит дружбу, любовь и вдохновение. Фильм затронет участие Толкина в Первой мировой войне — он служил в британских войсках с 1916-го по 1920-й.

    Рейтинг MPAA: PG-13 Детям до 13 просмотр не желателен
    Дата мировой премьеры: 3 мая 2019
    Цифровой релиз: 9 августа 2019, Двадцатый Век Фокс СНГ
    Продолжительность: 01: 51: 42
    Качество видео: HDRip
    Перевод: Профессиональный многоголосый (iTunes)
    Субтитры: Русские, английские
    Видео: HEVC/H.265, 1024x428, 1951 Kbps
    Аудио 1 : AC3, 2 ch, 160 Kbps | Русский
    Аудио 2 : AC3, 2 ch, 160 Kbps | АнглийскийОбщее
    Уникальный идентификатор : 31706352337951063581503684875001463915 (0x17DA6BDCE7B87B5E8D7E69B0D387046B)
    Полное имя : Tolkien.2019.HDRip.HEVC.mkv
    Формат : Matroska
    Версия формата : Version 4/Version 2
    Размер файла : 1, 81 Гбайт
    Продолжительность : 1 ч. 51 м.
    Общий поток : 2317 Кбит/сек
    Название фильма : Tolkien 2019
    Программа кодирования : XviD4PSP 8.0.91
    Библиотека кодирования : Lavf58.20.100
    ErrorDetectionType : Per level 1
    ENCODING_INFO : MATROSKA, WEBM MKV 1024 x 576
    Видео
    Идентификатор : 1
    Формат : HEVC
    Формат/Информация : High Efficiency Video Coding
    Профиль формата : Main10@L4.1@High
    Идентификатор кодека : V_MPEGH/ISO/HEVC
    Продолжительность : 1 ч. 51 м.
    Битрейт : 1951 Кбит/сек
    Ширина : 1024 пикселя
    Высота : 428 пикселей
    Соотношение сторон : 2, 40: 1
    Режим частоты кадров : Постоянный
    Частота кадров : 23, 976 (24000/1001) кадра/сек
    Цветовое пространство : YUV
    Субдискретизация насыщенности : 4: 2: 0
    Битовая глубина : 10 бит
    Бит/(Пиксели*Кадры) : 0.186
    Размер потока : 1, 52 Гбайт (84%)
    Заголовок : iFT
    Язык : English
    Default : Да
    Forced : Нет
    Цветовой диапазон : Full
    ENCODING_INFO : H264 HEVC NVENC VBR 2000kbps HQ
    Аудио #1
    Идентификатор : 2
    Формат : AC-3
    Формат/Информация : Audio Coding 3
    Параметр Endianness формата : Big
    Идентификатор кодека : A_AC3
    Продолжительность : 1 ч. 51 м.
    Вид битрейта : Постоянный
    Битрейт : 160 Кбит/сек
    Каналы : 2 канала
    Расположение каналов : Front: L R
    Частота : 48, 0 КГц
    Частота кадров : 31, 250 кадров/сек (1536 SPF)
    Битовая глубина : 16 бит
    Метод сжатия : С потерями
    Размер потока : 128 Мбайт (7%)
    Заголовок : MVO License
    Язык : Russian
    ServiceKind/String : Complete Main
    Default : Да
    Forced : Нет
    ENCODING_INFO : DTS AC3 CBR 160kbps
    Аудио #2
    Идентификатор : 3
    Формат : AC-3
    Формат/Информация : Audio Coding 3
    Параметр Endianness формата : Big
    Идентификатор кодека : A_AC3
    Продолжительность : 1 ч. 51 м.
    Вид битрейта : Постоянный
    Битрейт : 160 Кбит/сек
    Каналы : 2 канала
    Расположение каналов : Front: L R
    Частота : 48, 0 КГц
    Частота кадров : 31, 250 кадров/сек (1536 SPF)
    Битовая глубина : 16 бит
    Метод сжатия : С потерями
    Размер потока : 128 Мбайт (7%)
    Заголовок : Original
    Язык : English
    ServiceKind/String : Complete Main
    Default : Нет
    Forced : Нет
    ENCODING_INFO : AC3 AC3 CBR 160kbps
    Текст #1
    Идентификатор : 4
    Формат : UTF-8
    Идентификатор кодека : S_TEXT/UTF8
    Идентификатор кодека/Информация : UTF-8 Plain Text
    Заголовок : Forced
    Язык : Russian
    Default : Да
    Forced : Да
    ENCODING_INFO : SUBRIP COPY Быстрое
    Текст #2
    Идентификатор : 5
    Формат : UTF-8
    Идентификатор кодека : S_TEXT/UTF8
    Идентификатор кодека/Информация : UTF-8 Plain Text
    Заголовок : Full
    Язык : Russian
    Default : Нет
    Forced : Нет
    ENCODING_INFO : SUBRIP COPY Быстрое
    Текст #3
    Идентификатор : 6
    Формат : UTF-8
    Идентификатор кодека : S_TEXT/UTF8
    Идентификатор кодека/Информация : UTF-8 Plain Text
    Заголовок : Full (Focs)
    Язык : Russian
    Default : Нет
    Forced : Нет
    ENCODING_INFO : SUBRIP COPY Быстрое
    Текст #4
    Идентификатор : 7
    Формат : UTF-8
    Идентификатор кодека : S_TEXT/UTF8
    Идентификатор кодека/Информация : UTF-8 Plain Text
    Заголовок : Full
    Язык : English
    Default : Нет
    Forced : Нет
    ENCODING_INFO : SUBRIP COPY Быстрое
    Текст #5
    Идентификатор : 8
    Формат : UTF-8
    Идентификатор кодека : S_TEXT/UTF8
    Идентификатор кодека/Информация : UTF-8 Plain Text
    Заголовок : SDH
    Язык : English
    Default : Нет
    Forced : Нет
    ENCODING_INFO : SUBRIP COPY Быстрое
    Меню
    00: 00: 00.000 : : Chapter 01
    00: 06: 27.137 : : Chapter 02
    00: 11: 09.419 : : Chapter 03
    00: 15: 51.117 : : Chapter 04
    00: 21: 00.885 : : Chapter 05
    00: 25: 53.802 : : Chapter 06
    00: 34: 35.031 : : Chapter 07
    00: 37: 46.639 : : Chapter 08
    00: 42: 01.227 : : Chapter 09
    00: 44: 44.098 : : Chapter 10
    00: 47: 39.774 : : Chapter 11
    00: 52: 04.955 : : Chapter 12
    00: 57: 06.423 : : Chapter 13
    00: 59: 59.971 : : Chapter 14
    01: 04: 39.334 : : Chapter 15
    01: 08: 09.002 : : Chapter 16
    01: 11: 17.398 : : Chapter 17
    01: 14: 29.090 : : Chapter 18
    01: 19: 45.656 : : Chapter 19
    01: 26: 09.539 : : Chapter 20
    01: 32: 11.985 : : Chapter 21
    01: 35: 52.497 : : Chapter 22
    01: 40: 05.666 : : Chapter 23
    01: 45: 06.091 : : Chapter 24

    Скриншоты для ознакомления



    Все одноименные релизы в Клубе
    Время раздачи: 19 - 23 (до появления первых 3-5 скачавших)

    Онлайн видео Толкин



    Толкин / Tolkien (2019) HDRip [H.265] [10-bit] торрент скачать бесплатно
    Рейтинг →
     (голосов: 1, оценка 3/5, голосовать можно 1 раз )

    Другие торренты по теме:

  • Толкин / Tolkien (2019) WEB-DL [H.264 / 1080p-LQ] [MVO]
  • Толкин / Tolkien (2019) BDRip [H.264 / 720p-LQ] [MVO]
  • Толкин / Tolkien (2019) BDRemux [H.264 / 1080p] [MVO]
  • Толкин / Tolkien (2019) BDRip [H.264 / 1080p] [MVO] [PR]
  • Толкин / Tolkien (2019) BDRip [H.264 / 1080p] [MVO]
  • Толкин / Tolkien (2019) BDRip [H.264] [PR]
  • Толкин / Tolkien (2019) BDRip [H.264] [PR]
  • Толкин / Tolkien (2019) BDRip [H.264 / 720p]


    • Комментарии (0):

      Информация

      Информация

        Посетители, находящиеся в группе Гости, не могут оставлять комментарии в данной новости.

        ↓ Меню




        ↓ Опрос

        Вы добавили сайт в закладки?
        Да
        Нет


        Популярное