.
Авторизация | Регистрация
bitok.xyz
Торрент скачать бесплатно Фильмы торрент скачать Решала. Нулевые (2019) WEB-DLRip [H.265] [10-bit] торрент скачать бесплатно


    Решала. Нулевые (2019) WEB-DLRip [H.265] [10-bit] торрент скачать бесплатно

    Дата: 30-01-2020, 05:00 | .torrent скачали: 3

    Решала. Нулевые (2019) WEB-DLRip [H.265] [10-bit]Производство: Россия/Байкал Кино, Кинокомпания Тема, Студия Гринбокс, Russian World Vision
    Жанр: Боевик, драма, триллер
    Режиссер: Жаргал Бадмацыренов, Александр Кузьминов

    Актеры
    Константин Озеров, Мосэ Куртанидзе, Чингиз Аздаев, Жаргал Бадмацыренов, Евгений Алешин, Вячеслав Ширяев, Биликто Дамбаев, Олег Петелин, Максим Сорочинский, Александра Чубыкина

    Описание

    2008 год. Старинные друзья Костя и Завгар придумывают не совсем легальные схемы заработка. Деньги приходят легко и так же легко уходят. Кажется, что этот успех будет вечен. Но на каждого найдется свой капкан, особенно если хочется еще больше денег. Костя затевает большую игру, которая может стоить и ему, и Завгару свободы, дружбы и даже самой жизни.

    Возраст: 18+ (зрителям, достигшим 18 лет. запрещено для детей)
    Дата премьеры в России: 5 декабря 2019
    Продолжительность: 01: 27: 24
    Качество видео: WEB-DLRip
    Перевод: Не требуется (русский)
    Субтитры: Отсутствуют
    Видео: HEVC/H.265, 1024x454, 1963 Kbps
    Аудио: AC3, 2 ch, 160 Kbps | РусскийОбщее
    Уникальный идентификатор : 142765678845689573685009292748656256874 (0x6B67AB6A61165398890E0D0E7258A76A)
    Полное имя : Reshala.Nulevye.2019.WEB-DLRip.HEVC.mkv
    Формат : Matroska
    Версия формата : Version 4/Version 2
    Размер файла : 1, 32 Гбайт
    Продолжительность : 1 ч. 27 м.
    Общий поток : 2166 Кбит/сек
    Название фильма : Reshala.nulevye.2019.WEB-DL.(1080p).Getty.
    Программа кодирования : XviD4PSP 8.0.91
    Библиотека кодирования : Lavf58.20.100
    ErrorDetectionType : Per level 1
    ENCODING_INFO : MATROSKA, WEBM MKV 1024 x 576
    Видео
    Идентификатор : 1
    Формат : HEVC
    Формат/Информация : High Efficiency Video Coding
    Профиль формата : Main10@L4.1@High
    Идентификатор кодека : V_MPEGH/ISO/HEVC
    Продолжительность : 1 ч. 27 м.
    Битрейт : 1963 Кбит/сек
    Ширина : 1024 пикселя
    Высота : 454 пикселя
    Соотношение сторон : 2, 25: 1
    Режим частоты кадров : Постоянный
    Частота кадров : 24, 000 кадра/сек
    Цветовое пространство : YUV
    Субдискретизация насыщенности : 4: 2: 0
    Битовая глубина : 10 бит
    Бит/(Пиксели*Кадры) : 0.176
    Размер потока : 1, 20 Гбайт (91%)
    Default : Да
    Forced : Нет
    Цветовой диапазон : Full
    ENCODING_INFO : H264 HEVC NVENC VBR 2000kbps HQ
    Аудио
    Идентификатор : 2
    Формат : AC-3
    Формат/Информация : Audio Coding 3
    Параметр Endianness формата : Big
    Идентификатор кодека : A_AC3
    Продолжительность : 1 ч. 27 м.
    Вид битрейта : Постоянный
    Битрейт : 160 Кбит/сек
    Каналы : 2 канала
    Расположение каналов : Front: L R
    Частота : 48, 0 КГц
    Частота кадров : 31, 250 кадров/сек (1536 SPF)
    Битовая глубина : 16 бит
    Метод сжатия : С потерями
    Размер потока : 100 Мбайт (7%)
    ServiceKind/String : Complete Main
    Default : Да
    Forced : Нет
    ENCODING_INFO : AC3 AC3 CBR 160kbps

    Скриншоты для ознакомления



    Все одноименные релизы в Клубе
    Время раздачи: 19 - 23 (до появления первых 3-5 скачавших)

    Онлайн видео Решала. Нулевые (2019) WEB



    Решала. Нулевые (2019) WEB-DLRip [H.265] [10-bit] торрент скачать бесплатно
    Рейтинг →
     (голосов: 1, оценка 4/5, голосовать можно 1 раз )

    Другие торренты по теме:

  • Решала. Нулевые (2019) WEB-DL [H.264 / 1080p-LQ]
  • Решала. Нулевые (2019) WEB-DLRip
  • Решала. Нулевые (2019) WEBRip [H.264 / 720p-LQ]
  • Решала. Нулевые (2019) WEB-DL [1080p] ATV
  • Решала. Нулевые (2019) WEB-DLRip


    • Комментарии (0):

      Информация

      Информация

        Посетители, находящиеся в группе Гости, не могут оставлять комментарии в данной новости.

        ↓ Меню




        ↓ Опрос

        Вы добавили сайт в закладки?
        Да
        Нет


        Популярное