.
Авторизация | Регистрация
bitok.xyz
Торрент скачать бесплатно Фильмы торрент скачать Я иду искать / Ready or Not (2019) HDRip [H.265] [10-bit] торрент скачать бесплатно


    Я иду искать / Ready or Not (2019) HDRip [H.265] [10-bit] торрент скачать бесплатно

    Дата: 30-01-2020, 05:00 | .torrent скачали: 2

    Я иду искать / Ready or Not (2019) HDRip [H.265] [10-bit]Производство: США/Mythology Entertainment, Vinson Films
    Жанр: Триллер, комедия, ужасы
    Режиссер: Мэттью Беттинелли, Тайлер Джиллетт
    Продюсер: Брэдли Дж. Фишер, Уильям Шерак, Джеймс Вандербилт

    Актеры
    Самара Уивинг, Адам Броди, Марк О`Брайэн, Генри Черни, Энди МакДауэлл, Мелани Скрофано, Кристиан Бруун, Никки Гуаданьи, Элиз Левеске, Джон Ралстон

    Описание

    Молодая невеста — теперь часть семьи своего новоиспеченного мужа, богатого, но эксцентричного рода, чтящего вековые традиции. Кто бы мог подумать, что первая брачная ночь превратится в смертельную игру с новообретёнными родственниками, в которой девушке нужно будет очень постараться, чтобы дожить до рассвета.

    Возраст: 18+ (зрителям, достигшим 18 лет. запрещено для детей)
    Рейтинг MPAA: R (лицам до 17 лет обязательно присутствие взрослого)
    Дата мировой премьеры: 27 июля 2019
    Дата российской премьеры: 29 августа 2019
    Продолжительность: 01: 35: 22
    Качество видео: HDRip
    Перевод: Дублированный (iTunes)
    Субтитры: Русские, английские
    Видео: HEVC/H.265, 1024x428, 1965 Kbps
    Аудио 1 : AC3, 2 ch, 160 Kbps | Русский
    Аудио 2 : AC3, 2 ch, 160 Kbps | АнглийскийОбщее
    Уникальный идентификатор : 180772701432395492843875114340049253624 (0x87FF8E4E42627CB5DD1917034D4874F8)
    Полное имя : Ready.or.Not.2019.HDRip.HEVC.mkv
    Формат : Matroska
    Версия формата : Version 4/Version 2
    Размер файла : 1, 55 Гбайт
    Продолжительность : 1 ч. 35 м.
    Общий поток : 2332 Кбит/сек
    Название фильма : Ready or Not 2019 from селезень
    Программа кодирования : XviD4PSP 8.0.91
    Библиотека кодирования : Lavf58.20.100
    ErrorDetectionType : Per level 1
    ENCODING_INFO : MATROSKA, WEBM MKV 1024 x 576
    Видео
    Идентификатор : 1
    Формат : HEVC
    Формат/Информация : High Efficiency Video Coding
    Профиль формата : Main10@L4.1@High
    Идентификатор кодека : V_MPEGH/ISO/HEVC
    Продолжительность : 1 ч. 35 м.
    Битрейт : 1965 Кбит/сек
    Ширина : 1024 пикселя
    Высота : 428 пикселей
    Соотношение сторон : 2, 40: 1
    Режим частоты кадров : Постоянный
    Частота кадров : 23, 976 (24000/1001) кадра/сек
    Цветовое пространство : YUV
    Субдискретизация насыщенности : 4: 2: 0
    Битовая глубина : 10 бит
    Бит/(Пиксели*Кадры) : 0.187
    Размер потока : 1, 31 Гбайт (84%)
    Заголовок : playHD
    Язык : English
    Default : Да
    Forced : Нет
    Цветовой диапазон : Full
    ENCODING_INFO : H264 HEVC NVENC VBR 2000kbps HQ
    Аудио #1
    Идентификатор : 2
    Формат : AC-3
    Формат/Информация : Audio Coding 3
    Параметр Endianness формата : Big
    Идентификатор кодека : A_AC3
    Продолжительность : 1 ч. 35 м.
    Вид битрейта : Постоянный
    Битрейт : 160 Кбит/сек
    Каналы : 2 канала
    Расположение каналов : Front: L R
    Частота : 48, 0 КГц
    Частота кадров : 31, 250 кадров/сек (1536 SPF)
    Битовая глубина : 16 бит
    Метод сжатия : С потерями
    Размер потока : 109 Мбайт (7%)
    Заголовок : iTunes
    Язык : Russian
    ServiceKind/String : Complete Main
    Default : Да
    Forced : Нет
    ENCODING_INFO : AC3 AC3 CBR 160kbps
    Аудио #2
    Идентификатор : 3
    Формат : AC-3
    Формат/Информация : Audio Coding 3
    Параметр Endianness формата : Big
    Идентификатор кодека : A_AC3
    Продолжительность : 1 ч. 35 м.
    Вид битрейта : Постоянный
    Битрейт : 160 Кбит/сек
    Каналы : 2 канала
    Расположение каналов : Front: L R
    Частота : 48, 0 КГц
    Частота кадров : 31, 250 кадров/сек (1536 SPF)
    Битовая глубина : 16 бит
    Метод сжатия : С потерями
    Размер потока : 109 Мбайт (7%)
    Заголовок : Original
    Язык : English
    ServiceKind/String : Complete Main
    Default : Нет
    Forced : Нет
    ENCODING_INFO : AC3 AC3 CBR 160kbps
    Текст #1
    Идентификатор : 4
    Формат : UTF-8
    Идентификатор кодека : S_TEXT/UTF8
    Идентификатор кодека/Информация : UTF-8 Plain Text
    Заголовок : Forced
    Язык : Russian
    Default : Да
    Forced : Да
    ENCODING_INFO : SUBRIP COPY Быстрое
    Текст #2
    Идентификатор : 5
    Формат : UTF-8
    Идентификатор кодека : S_TEXT/UTF8
    Идентификатор кодека/Информация : UTF-8 Plain Text
    Заголовок : Full
    Язык : Russian
    Default : Нет
    Forced : Нет
    ENCODING_INFO : SUBRIP COPY Быстрое
    Текст #3
    Идентификатор : 6
    Формат : UTF-8
    Идентификатор кодека : S_TEXT/UTF8
    Идентификатор кодека/Информация : UTF-8 Plain Text
    Язык : English
    Default : Нет
    Forced : Нет
    ENCODING_INFO : SUBRIP COPY Быстрое
    Меню
    00: 00: 00.000 : : Chapter 01
    00: 03: 11.817 : : Chapter 02
    00: 06: 49.534 : : Chapter 03
    00: 09: 27.776 : : Chapter 04
    00: 12: 27.038 : : Chapter 05
    00: 16: 24.150 : : Chapter 06
    00: 21: 57.942 : : Chapter 07
    00: 25: 21.061 : : Chapter 08
    00: 28: 00.262 : : Chapter 09
    00: 31: 21.922 : : Chapter 10
    00: 34: 46.458 : : Chapter 11
    00: 36: 08.625 : : Chapter 12
    00: 38: 23.760 : : Chapter 13
    00: 41: 55.930 : : Chapter 14
    00: 45: 40.363 : : Chapter 15
    00: 48: 03.047 : : Chapter 16
    00: 51: 50.441 : : Chapter 17
    00: 54: 05.075 : : Chapter 18
    00: 57: 05.088 : : Chapter 19
    00: 59: 52.714 : : Chapter 20
    01: 01: 37.903 : : Chapter 21
    01: 04: 01.671 : : Chapter 22
    01: 07: 31.422 : : Chapter 23
    01: 09: 25.828 : : Chapter 24
    01: 11: 48.304 : : Chapter 25
    01: 15: 59.722 : : Chapter 26
    01: 18: 34.585 : : Chapter 27
    01: 21: 39.645 : : Chapter 28
    01: 24: 07.292 : : Chapter 29
    01: 27: 48.013 : : Chapter 30
    01: 29: 22.315 : : Chapter 31
    01: 30: 49.152 : : Chapter 32

    Скриншоты для ознакомления



    Все одноименные релизы в Клубе
    Время раздачи: 19 - 23 (до появления первых 3-5 скачавших)

    Онлайн видео Я иду искать



    Я иду искать / Ready or Not (2019) HDRip [H.265] [10-bit] торрент скачать бесплатно
    Рейтинг →
     (голосов: 1, оценка 5/5, голосовать можно 1 раз )

    Другие торренты по теме:

  • Я иду Искать / Ready or Not (2019) BDRip [H.264] [AVO]
  • Я иду искать / Ready or Not (2019) BDRip [H.264]
  • Я иду искать / Ready or Not (2019) BDRip
  • Я иду искать / Ready or Not (2019) BDRip [H.264 / 720p] [PR]
  • Я иду искать / Ready or Not (2019) BDRip [VO]
  • Я иду искать / Ready or Not (2019) BDRip [720p] ATV
  • Я иду искать / Ready or Not (2019) BDRemux [H.264 / 1080p]
  • Я иду искать / Ready or Not (2019) BDRip [H.264 / 1080p]


    • Комментарии (0):

      Информация

      Информация

        Посетители, находящиеся в группе Гости, не могут оставлять комментарии в данной новости.

        ↓ Меню




        ↓ Опрос

        Вы добавили сайт в закладки?
        Да
        Нет


        Популярное