.
Авторизация | Регистрация
bitok.xyz
Торрент скачать бесплатно Фильмы торрент скачать Идеальный пациент / The Perfect Patient (2019) WEB-DLRip торрент скачать бесплатно


    Идеальный пациент / The Perfect Patient (2019) WEB-DLRip торрент скачать бесплатно

    Дата: 30-01-2020, 05:00 | .torrent скачали: 0

    Идеальный пациент / The Perfect Patient (2019) WEB-DLRipПроизводство: Швеция, Brain Academy, Film i Väst, Nordisk Film
    Жанр: Триллер
    Режиссер: Микаэль Хофстрём
    Продюсер: Хелена Даниэльссон, Стефан Барон, Пер Бувенг

    Актеры
    Йонас Карлссон, Давид Денсик, Альба Аугуст, Сюзанн Рейтер, Линда Ульвеус, Кристофер Вагелин, Това Магнуссон-Норлинг, Даг Малмберг, Магнус Роосманн, Бьёрн Бенгтссон

    Описание

    Его изощренному уму позавидовал бы сам Ганнибал Лектер. Десятки жертв по всей стране и никаких улик. Единственный свидетель — он сам, сдавшийся на милость правосудия. Что это, муки совести или очередной ход в его чудовищной игре? В клетку со зверем заходит журналист.

    Возраст: 18+ (зрителям, достигшим 18 лет. запрещено для детей)
    Дата мировой премьеры: 20 сентября 2019
    Дата российской премьеры: 14 ноября 2019, Capella Film
    Продолжительность: 02: 11: 25
    Качество видео: WEB-DLRip
    Перевод: Дублированный (iTunes)
    Субтитры: отсутствуют
    Видео: Xvid, 720x272, ~657 kbps
    Аудио: MP3, 2 ch, 128 kbps
    Общее
    Полное имя : C: UsersSherifDesktopThe.Perfect.Patient.2019.WEB-DLRip.740.mb.avi
    Формат : AVI
    Формат/Информация : Audio Video Interleave
    Размер файла : 747 Мбайт
    Продолжительность : 2 ч. 11 м.
    Общий поток : 794 Кбит/сек
    Программа кодирования : VirtualDubMod 1.5.10.3 | (build 2550/release)
    Библиотека кодирования : VirtualDubMod build 2550/release
    Видео
    Идентификатор : 0
    Формат : MPEG-4 Visual
    Профиль формата : Advanced Simple@L5
    Параметр BVOP формата : 1
    Параметр QPel формата : Нет
    Параметр GMC формата : Без точки перехода
    Параметр матрицы формата : Выборочная
    Идентификатор кодека : XVID
    Идентификатор кодека/Подсказка : XviD
    Продолжительность : 2 ч. 11 м.
    Битрейт : 657 Кбит/сек
    Ширина : 720 пикселей
    Высота : 272 пикселя
    Соотношение сторон : 2, 647
    Частота кадров : 24, 000 кадра/сек
    Цветовое пространство : YUV
    Субдискретизация насыщенности : 4: 2: 0
    Битовая глубина : 8 бит
    Тип развёртки : Прогрессивная
    Метод сжатия : С потерями
    Бит/(Пиксели*Кадры) : 0.140
    Размер потока : 618 Мбайт (83%)
    Библиотека кодирования : XviD 73
    Аудио
    Идентификатор : 1
    Формат : MPEG Audio
    Версия формата : Version 1
    Профиль формата : Layer 3
    Идентификатор кодека : 55
    Идентификатор кодека/Подсказка : MP3
    Продолжительность : 2 ч. 11 м.
    Вид битрейта : Постоянный
    Битрейт : 128 Кбит/сек
    Каналы : 2 канала
    Частота : 48, 0 КГц
    Метод сжатия : С потерями
    Размер потока : 120 Мбайт (16%)
    Выравнивание : Соединение по промежуткам
    Продолжительность промежутка : 42 мс. (1, 00 видеокадр)
    Время предзагрузки промежутка : 504 мс.
    Библиотека кодирования : LAME3.99r
    Настройки программы : -m s -V 4 -q 2 -lowpass 17 -b 128

    Скриншоты для ознакомления



    Все одноименные релизы в Клубе
    Время раздачи: с 08.00 до 24.00 (до появления первых 3-5 скачавших)

    Онлайн видео Идеальный пациент



    Идеальный пациент / The Perfect Patient (2019) WEB-DLRip торрент скачать бесплатно
    Рейтинг →
     (голосов: 1, оценка 3/5, голосовать можно 1 раз )

    Другие торренты по теме:

  • Идеальный пациент / The Perfect Patient (2019) WEB-DL [H.264 / 720p-LQ]
  • Идеальный пациент / The Perfect Patient (2019) WEB-DL [H.264 / 1080p-LQ]
  • Идеальный пациент / The Perfect Patient (2019) WEB-DL [1080p] ATV
  • Идеальный пациент / The Perfect Patient (2019) WEB-DL [720p] ATV
  • Идеальный пациент / The Perfect Patient (2019) WEB-DLRip [H.265] [10-bit]
  • Идеальный пациент / The Perfect Patient (2019) WEB-DLRip [H.264 / 720p-LQ] [10 bit] [DUB]
  • Идеальный пациент / The Perfect Patient (2019) BDRip [H.264 / 1080p]
  • Идеальный пациент / The Perfect Patient (2019) BDRemux [H.264 / 1080p]


    • Комментарии (0):

      Информация

      Информация

        Посетители, находящиеся в группе Гости, не могут оставлять комментарии в данной новости.

        ↓ Меню




        ↓ Опрос

        Вы добавили сайт в закладки?
        Да
        Нет


        Популярное