.
Авторизация | Регистрация
bitok.xyz
Торрент скачать бесплатно Фильмы торрент скачать Джокер / Joker (2019) HDRip [H.265] [10-bit] торрент скачать бесплатно


    Джокер / Joker (2019) HDRip [H.265] [10-bit] торрент скачать бесплатно

    Дата: 30-01-2020, 05:00 | .torrent скачали: 1

    Джокер / Joker (2019) HDRip [H.265] [10-bit]Производство: США, Канада/BRON Studios, Creative Wealth Media Finance, DC Comics
    Жанр: Триллер, драма, криминал
    Режиссер: Тодд Филлипс

    Актеры
    Хоакин Феникс, Роберт Де Ниро, Зази Битц, Фрэнсис Конрой, Бретт Каллен, Шей Уигэм, Билл Кэмп, Гленн Флешлер, Ли Гилл, Джош Пэйс

    Описание

    Готэм, начало 1980-х годов. Комик Артур Флек живет с больной матерью, которая с детства учит его ходить с улыбкой. Пытаясь нести в мир хорошее и дарить людям радость, Артур сталкивается с человеческой жестокостью и постепенно приходит к выводу, что этот мир получит от него не добрую улыбку, а ухмылку злодея Джокера.

    Возраст: 18+ (зрителям, достигшим 18 лет. запрещено для детей)
    Рейтинг MPAA: R (лицам до 17 лет обязательно присутствие взрослого)
    Дата мировой премьеры: 31 августа 2019
    Дата российской премьеры: 3 октября 2019
    Продолжительность: 02: 01: 49
    Качество видео: HDRip
    Перевод: Дублированный (Лицензия)
    Субтитры: Русские, английские
    Видео: HEVC/H.265, 1024x554, 1957 Kbps
    Аудио 1 : AC3, 2 ch, 160 Kbps | Русский
    Аудио 2 : AC3, 2 ch, 160 Kbps | АнглийскийОбщее
    Уникальный идентификатор : 325696957912612038830503033243993582966 (0xF506F3D0BF2C19A32273E02A606B2D76)
    Полное имя : Joker.2019.HDRip.HEVC.mkv
    Формат : Matroska
    Версия формата : Version 4/Version 2
    Размер файла : 1, 98 Гбайт
    Продолжительность : 2 ч. 1 м.
    Общий поток : 2323 Кбит/сек
    Название фильма : Joker 2019
    Программа кодирования : XviD4PSP 8.0.91
    Библиотека кодирования : Lavf58.20.100
    ErrorDetectionType : Per level 1
    ENCODING_INFO : MATROSKA, WEBM MKV 1024 x 576
    Видео
    Идентификатор : 1
    Формат : HEVC
    Формат/Информация : High Efficiency Video Coding
    Профиль формата : Main10@L4.1@High
    Идентификатор кодека : V_MPEGH/ISO/HEVC
    Продолжительность : 2 ч. 1 м.
    Битрейт : 1957 Кбит/сек
    Ширина : 1024 пикселя
    Высота : 554 пикселя
    Соотношение сторон : 1, 85: 1
    Режим частоты кадров : Постоянный
    Частота кадров : 23, 976 (24000/1001) кадра/сек
    Цветовое пространство : YUV
    Субдискретизация насыщенности : 4: 2: 0
    Битовая глубина : 10 бит
    Бит/(Пиксели*Кадры) : 0.144
    Размер потока : 1, 66 Гбайт (84%)
    Заголовок : Encoded by seleZen
    Язык : English
    Default : Да
    Forced : Нет
    Цветовой диапазон : Full
    ENCODING_INFO : H264 HEVC NVENC VBR 2000kbps HQ
    Аудио #1
    Идентификатор : 2
    Формат : AC-3
    Формат/Информация : Audio Coding 3
    Параметр Endianness формата : Big
    Идентификатор кодека : A_AC3
    Продолжительность : 2 ч. 1 м.
    Вид битрейта : Постоянный
    Битрейт : 160 Кбит/сек
    Каналы : 2 канала
    Расположение каналов : Front: L R
    Частота : 48, 0 КГц
    Частота кадров : 31, 250 кадров/сек (1536 SPF)
    Битовая глубина : 16 бит
    Метод сжатия : С потерями
    Размер потока : 139 Мбайт (7%)
    Заголовок : Dub License
    Язык : Russian
    ServiceKind/String : Complete Main
    Default : Да
    Forced : Нет
    ENCODING_INFO : AC3 AC3 CBR 160kbps
    Аудио #2
    Идентификатор : 3
    Формат : AC-3
    Формат/Информация : Audio Coding 3
    Параметр Endianness формата : Big
    Идентификатор кодека : A_AC3
    Продолжительность : 2 ч. 1 м.
    Вид битрейта : Постоянный
    Битрейт : 160 Кбит/сек
    Каналы : 2 канала
    Расположение каналов : Front: L R
    Частота : 48, 0 КГц
    Частота кадров : 31, 250 кадров/сек (1536 SPF)
    Битовая глубина : 16 бит
    Метод сжатия : С потерями
    Размер потока : 139 Мбайт (7%)
    Заголовок : Original
    Язык : English
    ServiceKind/String : Complete Main
    Default : Нет
    Forced : Нет
    ENCODING_INFO : AC3 AC3 CBR 160kbps
    Текст #1
    Идентификатор : 4
    Формат : UTF-8
    Идентификатор кодека : S_TEXT/UTF8
    Идентификатор кодека/Информация : UTF-8 Plain Text
    Заголовок : Forced
    Язык : Russian
    Default : Да
    Forced : Да
    ENCODING_INFO : SUBRIP COPY Быстрое
    Текст #2
    Идентификатор : 5
    Формат : UTF-8
    Идентификатор кодека : S_TEXT/UTF8
    Идентификатор кодека/Информация : UTF-8 Plain Text
    Заголовок : Full iTunes
    Язык : Russian
    Default : Нет
    Forced : Нет
    ENCODING_INFO : SUBRIP COPY Быстрое
    Текст #3
    Идентификатор : 6
    Формат : UTF-8
    Идентификатор кодека : S_TEXT/UTF8
    Идентификатор кодека/Информация : UTF-8 Plain Text
    Заголовок : Forced Enigma
    Язык : Russian
    Default : Нет
    Forced : Нет
    ENCODING_INFO : SUBRIP COPY Быстрое
    Текст #4
    Идентификатор : 7
    Формат : UTF-8
    Идентификатор кодека : S_TEXT/UTF8
    Идентификатор кодека/Информация : UTF-8 Plain Text
    Заголовок : Full Enigma
    Язык : Russian
    Default : Нет
    Forced : Нет
    ENCODING_INFO : SUBRIP COPY Быстрое
    Текст #5
    Идентификатор : 8
    Формат : UTF-8
    Идентификатор кодека : S_TEXT/UTF8
    Идентификатор кодека/Информация : UTF-8 Plain Text
    Заголовок : Full
    Язык : English
    Default : Нет
    Forced : Нет
    ENCODING_INFO : SUBRIP COPY Быстрое
    Текст #6
    Идентификатор : 9
    Формат : UTF-8
    Идентификатор кодека : S_TEXT/UTF8
    Идентификатор кодека/Информация : UTF-8 Plain Text
    Заголовок : SDH
    Язык : English
    Default : Нет
    Forced : Нет
    ENCODING_INFO : SUBRIP COPY Быстрое
    Меню
    00: 00: 01.700 : : Studio Logo
    00: 00: 15.700 : : Makeup
    00: 01: 32.700 : : Broken Sign
    00: 03: 43.700 : : Therapy
    00: 07: 42.700 : : Bus
    00: 09: 15.700 : : Meeting Murray
    00: 15: 21.700 : : Protection
    00: 19: 13.700 : : Enter Sophie
    00: 21: 01.700 : : Bath
    00: 23: 34.700 : : Following
    00: 24: 53.700 : : Comedy Scout
    00: 26: 01.700 : : Invite
    00: 27: 59.700 : : Hospital Gig
    00: 29: 23.700 : : Subway Scuffle
    00: 34: 10.699 : : Fleeing
    00: 36: 14.700 : : First Kiss
    00: 36: 46.700 : : Punching Out
    00: 38: 14.700 : : Wayne Interview
    00: 39: 56.700 : : Negative Thoughts
    00: 42: 14.700 : : Open Mic
    00: 45: 15.700 : : Date
    00: 46: 21.700 : : Letter to Wayne
    00: 50: 23.700 : : Clipping
    00: 51: 12.700 : : Wayne Manor
    00: 55: 16.700 : : Emergency
    00: 56: 19.700 : : Detectives
    00: 58: 32.700 : : Arthur on T.V.
    01: 01: 01.700 : : Protest Coverage
    01: 02: 18.700 : : Meeting Wayne
    01: 07: 11.700 : : Invitation
    01: 09: 36.700 : : Arkham
    01: 13: 26.700 : : Penny\'s File
    01: 15: 41.700 : : Sophie\'s Place
    01: 19: 49.700 : : Life\'s a Comedy
    01: 22: 12.700 : : Practice
    01: 24: 28.700 : : Randall and Gary visit Arthur
    01: 30: 15.700 : : Stairwell Waltz
    01: 34: 51.700 : : Dressing Room
    01: 37: 02.700 : : Arthur\'s Big Moment
    01: 46: 35.700 : : Riot
    01: 49: 05.700 : : Crime Alley
    01: 50: 02.700 : : Joker\'s Fans
    01: 52: 33.700 : : Thinking of a Joke
    01: 55: 39.700 : : End Credits

    Скриншоты для ознакомления



    Все одноименные релизы в Клубе
    Время раздачи: 19 - 23 (до появления первых 3-5 скачавших)

    Онлайн видео Джокер



    Джокер / Joker (2019) HDRip [H.265] [10-bit] торрент скачать бесплатно
    Рейтинг →
     (голосов: 1, оценка 3/5, голосовать можно 1 раз )

    Другие торренты по теме:

  • Джокер / Joker (2019) TS [AD]
  • Джокер / Joker (2012) DVDRip
  • Джокер / Joker (2019) WEBRip [H.264 / 1080p-LQ] [AVO]
  • Джокер / Joker (2019) WEBRip [H.264 / 1080p] [EN / KOR Sub]
  • Джокер / Joker (2019) WEBRip [H.264 / 720p-LQ] [AVO]
  • Джокер / Joker (2019) WEBRip [H.264 / 1080p-LQ] [Line, AD]
  • Джокер / Joker (2019) WEBRip [H.264 / 720p-LQ] [MVO]
  • Джокер / Joker (2019) WEBRip [H.264 / 1080p] [PR]


    • Комментарии (0):

      Информация

      Информация

        Посетители, находящиеся в группе Гости, не могут оставлять комментарии в данной новости.

        ↓ Меню




        ↓ Опрос

        Вы добавили сайт в закладки?
        Да
        Нет


        Популярное