.
Авторизация | Регистрация
bitok.xyz
Торрент скачать бесплатно Фильмы торрент скачать В тихом омуте / I See You (2019) WEB-DLRip [H.265] [10-bit] торрент скачать бесплатно


    В тихом омуте / I See You (2019) WEB-DLRip [H.265] [10-bit] торрент скачать бесплатно

    Дата: 30-01-2020, 05:00 | .torrent скачали: 1

    В тихом омуте / I See You (2019) WEB-DLRip [H.265] [10-bit]Производство: США, Head Gear Films, Kreo Films FZ, Local Hero
    Жанр: триллер, детектив, драма, криминал
    Режиссер: Адам Рэндолл

    Актеры
    Хелен Хант, Джон Тенни, Джуда Льюис, Оуэн Тиг, Либэ Барер, Грегори Алан Уильямс, Эллисон Кинг, Эрика Александр, Дженнифер Грэйс, Адам Керн

    Описание

    В идиллически тихом и спокойном городке бесследно пропадает двенадцатилетний мальчик. За расследование берется детектив, который переживает раскол в семье, узнав о недавней измене своей жены. Тем временем смертельная угроза подбирается уже к его собственному дому…

    Рейтинг MPAA: R (лицам до 17 лет обязательно присутствие взрослого)
    Дата мировой премьеры: 11 марта 2019
    Цифровой релиз: 6 декабря 2019
    Продолжительность: 01: 33: 40
    Качество видео: WEB-DLRip
    Перевод: Дублированный (iTunes)
    Субтитры: Русские, английские
    Видео: HEVC/H.265, 1024x464, 1954 Kbps
    Аудио 1 : AC3, 2 ch, 160 Kbps | Русский
    Аудио 2 : AC3, 2 ch, 160 Kbps | АнглийскийОбщее
    Уникальный идентификатор : 66711078364468779994335850721170592307 (0x3230161AAB7A5129F88AAE69AC169233)
    Полное имя : I.See.You.2019.WEB-DLRip.HEVC.mkv
    Формат : Matroska
    Версия формата : Version 4/Version 2
    Размер файла : 1, 59 Гбайт
    Продолжительность : 1 ч. 38 м.
    Общий поток : 2320 Кбит/сек
    Название фильма : I See You 2019
    Программа кодирования : XviD4PSP 8.0.91
    Библиотека кодирования : Lavf58.20.100
    ErrorDetectionType : Per level 1
    ENCODING_INFO : MATROSKA, WEBM MKV 1024 x 576
    Видео
    Идентификатор : 1
    Формат : HEVC
    Формат/Информация : High Efficiency Video Coding
    Профиль формата : Main10@L4.1@High
    Идентификатор кодека : V_MPEGH/ISO/HEVC
    Продолжительность : 1 ч. 38 м.
    Битрейт : 1954 Кбит/сек
    Ширина : 1024 пикселя
    Высота : 464 пикселя
    Соотношение сторон : 2, 2: 1
    Режим частоты кадров : Постоянный
    Частота кадров : 23, 976 (24000/1001) кадра/сек
    Цветовое пространство : YUV
    Субдискретизация насыщенности : 4: 2: 0
    Битовая глубина : 10 бит
    Бит/(Пиксели*Кадры) : 0.172
    Размер потока : 1, 34 Гбайт (84%)
    Язык : English
    Default : Да
    Forced : Нет
    Цветовой диапазон : Limited
    Основные цвета : BT.709
    Характеристики трансфера : BT.709
    Коэффициенты матрицы : BT.709
    ENCODING_INFO : H264 HEVC NVENC VBR 2000kbps HQ
    Аудио #1
    Идентификатор : 2
    Формат : AC-3
    Формат/Информация : Audio Coding 3
    Параметр Endianness формата : Big
    Идентификатор кодека : A_AC3
    Продолжительность : 1 ч. 38 м.
    Вид битрейта : Постоянный
    Битрейт : 160 Кбит/сек
    Каналы : 2 канала
    Расположение каналов : Front: L R
    Частота : 48, 0 КГц
    Частота кадров : 31, 250 кадров/сек (1536 SPF)
    Битовая глубина : 16 бит
    Метод сжатия : С потерями
    Размер потока : 112 Мбайт (7%)
    Заголовок : iTunes
    Язык : Russian
    ServiceKind/String : Complete Main
    Default : Да
    Forced : Нет
    ENCODING_INFO : AC3 AC3 CBR 160kbps
    Аудио #2
    Идентификатор : 3
    Формат : AC-3
    Формат/Информация : Audio Coding 3
    Параметр Endianness формата : Big
    Идентификатор кодека : A_AC3
    Продолжительность : 1 ч. 38 м.
    Вид битрейта : Постоянный
    Битрейт : 160 Кбит/сек
    Каналы : 2 канала
    Расположение каналов : Front: L R
    Частота : 48, 0 КГц
    Частота кадров : 31, 250 кадров/сек (1536 SPF)
    Битовая глубина : 16 бит
    Метод сжатия : С потерями
    Размер потока : 112 Мбайт (7%)
    Заголовок : Original
    Язык : English
    ServiceKind/String : Complete Main
    Default : Нет
    Forced : Нет
    ENCODING_INFO : EAC3 AC3 CBR 160kbps
    Текст #1
    Идентификатор : 4
    Формат : UTF-8
    Идентификатор кодека : S_TEXT/UTF8
    Идентификатор кодека/Информация : UTF-8 Plain Text
    Заголовок : Full
    Язык : Russian
    Default : Да
    Forced : Нет
    ENCODING_INFO : SUBRIP COPY Быстрое
    Текст #2
    Идентификатор : 5
    Формат : UTF-8
    Идентификатор кодека : S_TEXT/UTF8
    Идентификатор кодека/Информация : UTF-8 Plain Text
    Заголовок : Full
    Язык : English
    Default : Нет
    Forced : Нет
    ENCODING_INFO : SUBRIP COPY Быстрое
    Текст #3
    Идентификатор : 6
    Формат : UTF-8
    Идентификатор кодека : S_TEXT/UTF8
    Идентификатор кодека/Информация : UTF-8 Plain Text
    Заголовок : SDH
    Язык : English
    Default : Нет
    Forced : Нет
    ENCODING_INFO : SUBRIP COPY Быстрое

    Скриншоты для ознакомления



    Все одноименные релизы в Клубе
    Время раздачи: 19 - 23 (до появления первых 3-5 скачавших)

    Онлайн видео В тихом омуте



    В тихом омуте / I See You (2019) WEB-DLRip [H.265] [10-bit] торрент скачать бесплатно
    Рейтинг →
     (голосов: 1, оценка 4/5, голосовать можно 1 раз )

    Другие торренты по теме:

  • В тихом омуте / Ma Loute (2016) BDRip [H.264 / 720p]
  • В тихом омуте / Ma Loute (2016) HDRip
  • В тихом омуте / Ma Loute (2016) HDRip
  • В тихом омуте / Ma Loute (2016) HDRip
  • В тихом омуте / Ma Loute (2016) HDRip
  • В тихом омуте / Ma Loute (2016) BDRip [H.264 / 720p]
  • В тихом омуте / Ma Loute (2016) BDRip [H.264 / 1080p]
  • В тихом омуте / Ma Loute (2016) BDRemux [H.264 / 1080p]


    • Комментарии (0):

      Информация

      Информация

        Посетители, находящиеся в группе Гости, не могут оставлять комментарии в данной новости.

        ↓ Меню




        ↓ Опрос

        Вы добавили сайт в закладки?
        Да
        Нет


        Популярное