.
Авторизация | Регистрация
bitok.xyz
Торрент скачать бесплатно Фильмы торрент скачать Нянька на рождество / Kalte FuBe / Cold Feet (2018) HDRip [H.265] [10-bit] торрент скачать бесплатно


    Нянька на рождество / Kalte FuBe / Cold Feet (2018) HDRip [H.265] [10-bit] торрент скачать бесплатно

    Дата: 30-01-2020, 05:00 | .torrent скачали: 1

    Нянька на рождество / Kalte FuBe / Cold Feet (2018) HDRip [H.265] [10-bit]Производство: Германия, Австрия, Claussen + Putz Filmproduktion, Deutsche Columbia Pictures Film Produktion, Lotus Film
    Жанр: Комедия
    Режиссер: Вольфганг Гроос
    Продюсер: Якоб Клауссен, Томас Придниг, Ульрика Пуц,

    Актеры
    Эмилио Сакрайя, Соня Герхардт, Хайнер Лаутербах, Алекс Червинский, Герти Драссль, Жасмин Герат, Джинн Гурсо, Adam Halajczyk, Александр Йованович, Михаэль Островский

    Описание

    По нелепой случайности воришка Денис оказывается в роли сиделки у прикованного к инвалидному креслу. Он вынужден ухаживать за богатым бизнесменом и его внучкой, которая приехала навестить деда. Рэймонд с радостью избавился бы от непрошенного гостя, но снежная буря вынуждает их оставаться в одном доме.
    Начинается игра, в которой старик и молодой человек применяют свои способности с ужасающей изобретательностью…

    Возраст: 12+ (зрителям, достигшим 12 лет)
    Дата мировой премьеры: 21 ноября 2018
    Дата российской премьеры: 20 декабря 2019, Русский Репортаж
    Продолжительность: 01: 33: 06
    Качество видео: HDRip
    Перевод: Профессиональный многоголосый (iTunes)
    Субтитры: Отсутствуют
    Видео: HEVC/H.265, 1024x428, 1992 Kbps
    Аудио 1 : AC3, 2 ch, 160 Kbps | Русский
    Аудио 2 : AC3, 2 ch, 160 Kbps | НемецкийОбщее
    Уникальный идентификатор : 185616989898079746857577326774610102793 (0x8BA4882ACE6EC145BDD24D3E62F90A09)
    Полное имя : Nyanka.na.rozhdestvo.2018.HDRip.HEVC.mkv
    Формат : Matroska
    Версия формата : Version 4/Version 2
    Размер файла : 1, 50 Гбайт
    Продолжительность : 1 ч. 33 м.
    Общий поток : 2314 Кбит/сек
    Дата кодирования : UTC 2020-01-29 11: 10: 58
    Программа кодирования : mkvmerge v7.8.0 (\'River Man\') 32bit built on Apr 3 2015 12: 11: 22
    Библиотека кодирования : libebml v1.3.1 + libmatroska v1.4.2/Lavf58.20.100
    ENCODING_INFO : MATROSKA, WEBM MKV 1024 x 576
    Видео
    Идентификатор : 1
    Формат : HEVC
    Формат/Информация : High Efficiency Video Coding
    Профиль формата : Main10@L4.1@High
    Идентификатор кодека : V_MPEGH/ISO/HEVC
    Продолжительность : 1 ч. 33 м.
    Битрейт : 1992 Кбит/сек
    Ширина : 1024 пикселя
    Высота : 428 пикселей
    Соотношение сторон : 2, 40: 1
    Режим частоты кадров : Постоянный
    Частота кадров : 25, 000 кадров/сек
    Цветовое пространство : YUV
    Субдискретизация насыщенности : 4: 2: 0
    Битовая глубина : 10 бит
    Бит/(Пиксели*Кадры) : 0.182
    Размер потока : 1, 30 Гбайт (86%)
    Язык : German
    Default : Да
    Forced : Нет
    ENCODING_INFO : H264 HEVC NVENC VBR 2000kbps HQ
    Аудио #1
    Идентификатор : 2
    Формат : AC-3
    Формат/Информация : Audio Coding 3
    Параметр Endianness формата : Big
    Идентификатор кодека : A_AC3
    Продолжительность : 1 ч. 33 м.
    Вид битрейта : Постоянный
    Битрейт : 160 Кбит/сек
    Каналы : 2 канала
    Расположение каналов : Front: L R
    Частота : 48, 0 КГц
    Частота кадров : 31, 250 кадров/сек (1536 SPF)
    Битовая глубина : 16 бит
    Метод сжатия : С потерями
    Размер потока : 107 Мбайт (7%)
    Заголовок : iTunes (ELEKTRI4KA.UNIONGANG)
    Язык : Russian
    ServiceKind/String : Complete Main
    Default : Да
    Forced : Нет
    ENCODING_INFO : AC3 AC3 CBR 160kbps
    Аудио #2
    Идентификатор : 3
    Формат : AC-3
    Формат/Информация : Audio Coding 3
    Параметр Endianness формата : Big
    Идентификатор кодека : A_AC3
    Продолжительность : 1 ч. 33 м.
    Вид битрейта : Постоянный
    Битрейт : 160 Кбит/сек
    Каналы : 2 канала
    Расположение каналов : Front: L R
    Частота : 48, 0 КГц
    Частота кадров : 31, 250 кадров/сек (1536 SPF)
    Битовая глубина : 16 бит
    Метод сжатия : С потерями
    Размер потока : 107 Мбайт (7%)
    Язык : German
    ServiceKind/String : Complete Main
    Default : Нет
    Forced : Нет
    ENCODING_INFO : DTS AC3 CBR 160kbps
    Меню
    00: 00: 00.000 : : Chapter 01
    00: 07: 27.720 : : Chapter 02
    00: 14: 19.520 : : Chapter 03
    00: 19: 26.040 : : Chapter 04
    00: 23: 56.120 : : Chapter 05
    00: 27: 57.600 : : Chapter 06
    00: 32: 20.160 : : Chapter 07
    00: 38: 13.920 : : Chapter 08
    00: 44: 58.120 : : Chapter 09
    00: 55: 45.480 : : Chapter 10
    01: 01: 13.360 : : Chapter 11
    01: 06: 16.080 : : Chapter 12
    01: 13: 34.360 : : Chapter 13
    01: 18: 37.280 : : Chapter 14
    01: 23: 24.840 : : Chapter 15
    01: 28: 08.400 : : Chapter 16

    Скриншоты для ознакомления



    Все одноименные релизы в Клубе
    Время раздачи: 19 - 23 (до появления первых 3-5 скачавших)

    Онлайн видео Нянька на рождество



    Нянька на рождество / Kalte FuBe / Cold Feet (2018) HDRip [H.265] [10-bit] торрент скачать бесплатно
    Рейтинг →
     (голосов: 1, оценка 4/5, голосовать можно 1 раз )

    Другие торренты по теме:

  • Нянька на рождество / Kalte FuBe / Cold Feet (2018) BDRip [H.264 / 720p-LQ] [PR]
  • Нянька на рождество / Kalte FuBe / Cold Feet (2018) BDRip [H.264 / 1080p-LQ] [PR]


    • Комментарии (0):

      Информация

      Информация

        Посетители, находящиеся в группе Гости, не могут оставлять комментарии в данной новости.

        ↓ Меню




        ↓ Опрос

        Вы добавили сайт в закладки?
        Да
        Нет


        Популярное