.
Авторизация | Регистрация
bitok.xyz
Торрент скачать бесплатно Фильмы торрент скачать Хорошие мальчики / Good Boys (2019) BDRemux [H.264 / 1080p] торрент скачать бесплатно


    Хорошие мальчики / Good Boys (2019) BDRemux [H.264 / 1080p] торрент скачать бесплатно

    Дата: 30-01-2020, 05:00 | .torrent скачали: 0

    Хорошие мальчики / Good Boys (2019) BDRemux [H.264 / 1080p]Производство: США/Good Universe, Point Grey Pictures, Universal Pictures
    Жанр: Комедия, приключения
    Режиссер: Джин Ступницки

    Актеры
    Джейкоб Тремблей, Кит Л. Уильямс, Брэйди Нун, Молли Гордон, Мидори Френсис, Исаак Ванг, Милли Дэвис, Джош Барклай Карас, Уилл Форте, Mariessa Portelance

    Описание

    История троих друзей-шестиклассников, планирующих посетить крутую вечеринку. Но прежде они должны хорошенько подготовиться, чтобы не ударить в грязь лицом. Так начинается безумное путешествие по долине Сан-Фернандо, в котором надо вернуть наркотики, украсть пиво и починить сломанного дрона — все это нужно сделать, пока родители не вернулись домой.

    Возраст: 16+ (зрителям, достигшим 16 лет)
    Рейтинг MPAA: R (лицам до 17 лет обязательно присутствие взрослого)
    Дата мировой премьеры: 11 марта 2019
    Релиз от: seleZen
    Продолжительность: 01: 29: 38
    Качество видео: BDRemux
    Перевод: Дублированный (Лицензия Blu-Ray EUR)
    Субтитры: Русские (Forced, full), английские
    Видео: AVC/H.264, 1920х1080, ~31.3 Mbps
    Аудио 1: DTS, 5.1, 768 Kbps | Дублированный (RUS)
    Аудио 2: AC3, 5.1, 448 Kbps | Дублированный (RUS)
    Аудио 3: AC3, 2.0, 192 Kbps | Дублированный (UKR)
    Аудио 4: DTS-HD MA, 6 ch, 3425 Kbps | Английский
    General
    Complete name : Good.Boys.2019.Lic.BDREMUX.1080p.seleZen.mkv
    Format : Matroska
    Format version : Version 4
    File size : 22.6 GiB
    Duration : 1 h 29 min
    Overall bit rate mode : Variable
    Overall bit rate : 36.1 Mb/s
    Movie name : Good Boys 2019 from селезень
    Encoded date : UTC 2020-01-29 10: 26: 19
    Writing application : mkvmerge v40.0.0 (\'Old Town Road + Pony\') 64-bit
    Writing library : libebml v1.3.9 + libmatroska v1.5.2
    Video
    ID : 1
    Format : AVC
    Format/Info : Advanced Video Codec
    Format profile : High@L4.1
    Format settings : CABAC/4 Ref Frames
    Format settings, CABAC : Yes
    Format settings, Reference frames : 4 frames
    Codec ID : V_MPEG4/ISO/AVC
    Duration : 1 h 29 min
    Bit rate mode : Variable
    Maximum bit rate : 34.7 Mb/s
    Width : 1 920 pixels
    Height : 1 080 pixels
    Display aspect ratio : 16: 9
    Frame rate mode : Constant
    Frame rate : 23.976 (24000/1001) FPS
    Color space : YUV
    Chroma subsampling : 4: 2: 0
    Bit depth : 8 bits
    Scan type : Progressive
    Language : English
    Default : Yes
    Forced : No
    Audio #1
    ID : 2
    Format : DTS
    Format/Info : Digital Theater Systems
    Codec ID : A_DTS
    Duration : 1 h 29 min
    Bit rate mode : Constant
    Bit rate : 768 kb/s
    Channel(s) : 6 channels
    Channel layout : C L R Ls Rs LFE
    Sampling rate : 48.0 kHz
    Frame rate : 93.750 FPS (512 SPF)
    Bit depth : 24 bits
    Compression mode : Lossy
    Stream size : 492 MiB (2%)
    Title : Dub License
    Language : Russian
    Default : Yes
    Forced : Yes
    Audio #2
    ID : 3
    Format : AC-3
    Format/Info : Audio Coding 3
    Commercial name : Dolby Digital
    Codec ID : A_AC3
    Duration : 1 h 29 min
    Bit rate mode : Constant
    Bit rate : 448 kb/s
    Channel(s) : 6 channels
    Channel layout : L R C LFE Ls Rs
    Sampling rate : 48.0 kHz
    Frame rate : 31.250 FPS (1536 SPF)
    Compression mode : Lossy
    Stream size : 287 MiB (1%)
    Title : Dub License
    Language : Russian
    Service kind : Complete Main
    Default : No
    Forced : No
    Audio #3
    ID : 4
    Format : AC-3
    Format/Info : Audio Coding 3
    Commercial name : Dolby Digital
    Codec ID : A_AC3
    Duration : 1 h 29 min
    Bit rate mode : Constant
    Bit rate : 192 kb/s
    Channel(s) : 2 channels
    Channel layout : L R
    Sampling rate : 48.0 kHz
    Frame rate : 31.250 FPS (1536 SPF)
    Compression mode : Lossy
    Stream size : 123 MiB (1%)
    Title : Dub
    Language : Ukrainian
    Service kind : Complete Main
    Default : No
    Forced : No
    Audio #4
    ID : 5
    Format : DTS XLL
    Format/Info : Digital Theater Systems
    Commercial name : DTS-HD Master Audio
    Codec ID : A_DTS
    Duration : 1 h 29 min
    Bit rate mode : Variable
    Channel(s) : 6 channels
    Channel layout : C L R Ls Rs LFE
    Sampling rate : 48.0 kHz
    Frame rate : 93.750 FPS (512 SPF)
    Bit depth : 24 bits
    Compression mode : Lossless
    Title : Original
    Language : English
    Default : No
    Forced : No
    Text #1
    ID : 6
    Format : UTF-8
    Codec ID : S_TEXT/UTF8
    Codec ID/Info : UTF-8 Plain Text
    Title : Forced
    Language : Russian
    Default : Yes
    Forced : Yes
    Text #2
    ID : 7
    Format : UTF-8
    Codec ID : S_TEXT/UTF8
    Codec ID/Info : UTF-8 Plain Text
    Title : Full
    Language : Russian
    Default : No
    Forced : No
    Text #3
    ID : 8
    Format : UTF-8
    Codec ID : S_TEXT/UTF8
    Codec ID/Info : UTF-8 Plain Text
    Language : English
    Default : No
    Forced : No
    Menu
    00: 00: 00.000 : en: 00: 00: 00.000
    00: 03: 54.025 : en: 00: 03: 54.025
    00: 09: 00.165 : en: 00: 09: 00.165
    00: 11: 51.169 : en: 00: 11: 51.169
    00: 15: 08.658 : en: 00: 15: 08.658
    00: 17: 29.840 : en: 00: 17: 29.840
    00: 21: 20.696 : en: 00: 21: 20.696
    00: 27: 27.646 : en: 00: 27: 27.646
    00: 31: 25.675 : en: 00: 31: 25.675
    00: 35: 06.104 : en: 00: 35: 06.104
    00: 40: 11.868 : en: 00: 40: 11.868
    00: 47: 16.208 : en: 00: 47: 16.208
    00: 51: 01.183 : en: 00: 51: 01.183
    00: 57: 54.388 : en: 00: 57: 54.388
    01: 02: 27.953 : en: 01: 02: 27.953
    01: 06: 46.544 : en: 01: 06: 46.544
    01: 09: 56.901 : en: 01: 09: 56.901
    01: 14: 19.497 : en: 01: 14: 19.497
    01: 20: 00.796 : en: 01: 20: 00.796
    01: 23: 35.427 : en: 01: 23: 35.427

    Скриншоты для ознакомления


    Все одноименные релизы в Клубе
    Время раздачи: 24/7 (мультитрекер)

    Онлайн видео Хорошие мальчики



    Хорошие мальчики / Good Boys (2019) BDRemux [H.264 / 1080p] торрент скачать бесплатно
    Рейтинг →
     (голосов: 1, оценка 4/5, голосовать можно 1 раз )

    Другие торренты по теме:

  • Хорошие мальчики (Хорошие ребята) / Good Boys (2019) BDRip [H.264]
  • Хорошие мальчики / Good Boys (2019) WEB-DLRip [H.264 / 720p-LQ] [MVO] [AD]
  • Хорошие мальчики / Good Boys (2019) BDRip [H.264 / 1080p]
  • Хорошие мальчики / Good Boys (2019) BDRemux [H.264 / 1080p]
  • Хорошие мальчики / Good Boys (2019) BDRip
  • Хорошие мальчики / Good Boys (2019) BDRip
  • Хорошие мальчики / Good Boys (2019) BDRip [H.264 / 720p-LQ]
  • Хорошие мальчики / Good Boys (2019) BDRip [H.264 / 1080p-LQ] [hand made 16:9]


    • Комментарии (0):

      Информация

      Информация

        Посетители, находящиеся в группе Гости, не могут оставлять комментарии в данной новости.

        ↓ Меню




        ↓ Опрос

        Вы добавили сайт в закладки?
        Да
        Нет


        Популярное