.
Авторизация | Регистрация
bitok.xyz
Торрент скачать бесплатно Фильмы торрент скачать Идеальный пациент / The Perfect Patient (2019) WEB-DLRip [H.265] [10-bit] торрент скачать бесплатно


    Идеальный пациент / The Perfect Patient (2019) WEB-DLRip [H.265] [10-bit] торрент скачать бесплатно

    Дата: 30-01-2020, 05:00 | .torrent скачали: 1

    Идеальный пациент / The Perfect Patient (2019) WEB-DLRip [H.265] [10-bit]Производство: Швеция, Brain Academy, Film i Väst, Nordisk Film
    Жанр: Триллер
    Режиссер: Микаэль Хофстрём
    Продюсер: Хелена Даниэльссон, Стефан Барон, Пер Бувенг

    Актеры
    Йонас Карлссон, Давид Денсик, Альба Аугуст, Сюзанн Рейтер, Линда Ульвеус, Кристофер Вагелин, Това Магнуссон-Норлинг, Даг Малмберг, Магнус Роосманн, Бьёрн Бенгтссон

    Описание
    Его изощренному уму позавидовал бы сам Ганнибал Лектер. Десятки жертв по всей стране и никаких улик. Единственный свидетель — он сам, сдавшийся на милость правосудия. Что это, муки совести или очередной ход в его чудовищной игре? В клетку со зверем заходит журналист.

    Возраст: 18+ (зрителям, достигшим 18 лет. запрещено для детей)
    Рейтинг MPAA:
    Дата мировой премьеры: 20 сентября 2019
    Дата российской премьеры: 14 ноября 2019, Capella Film
    Цифровой релиз: 27 января 2020, Capella Film
    Продолжительность: 02: 11: 25
    Качество видео: WEB-DLRip
    Перевод: Дублированный(iTunes)
    Субтитры: Отсутствуют
    Видео: HEVC/H.265, 1024x384, 1936 Kbps
    Аудио 1: AC3, 2 ch, 160 Kbps | РусскийОбщее
    Уникальный идентификатор : 54793963649681912219377854479648942691 (0x2938EEFC3ED037504E6B8B5131CFEA63)
    Полное имя : Idealnyiy.patsient.2019.WEB-DLRip.HEVC.mkv
    Формат : Matroska
    Версия формата : Version 4/Version 2
    Размер файла : 1, 96 Гбайт
    Продолжительность : 2 ч. 11 м.
    Общий поток : 2139 Кбит/сек
    Программа кодирования : XviD4PSP 8.0.91
    Библиотека кодирования : Lavf58.20.100
    ErrorDetectionType : Per level 1
    ENCODING_INFO : MATROSKA, WEBM MKV 1024 x 576
    Видео
    Идентификатор : 1
    Формат : HEVC
    Формат/Информация : High Efficiency Video Coding
    Профиль формата : Main10@L4.1@High
    Идентификатор кодека : V_MPEGH/ISO/HEVC
    Продолжительность : 2 ч. 11 м.
    Битрейт : 1936 Кбит/сек
    Ширина : 1024 пикселя
    Высота : 384 пикселя
    Соотношение сторон : 2, 667
    Режим частоты кадров : Постоянный
    Частота кадров : 24, 000 кадра/сек
    Цветовое пространство : YUV
    Субдискретизация насыщенности : 4: 2: 0
    Битовая глубина : 10 бит
    Бит/(Пиксели*Кадры) : 0.205
    Размер потока : 1, 78 Гбайт (91%)
    Заголовок : iTunes
    Язык : English
    Default : Да
    Forced : Нет
    Цветовой диапазон : Limited
    Основные цвета : BT.709
    Характеристики трансфера : BT.709
    Коэффициенты матрицы : BT.709
    ENCODING_INFO : H264 HEVC NVENC VBR 2000kbps HQ
    Аудио
    Идентификатор : 2
    Формат : AC-3
    Формат/Информация : Audio Coding 3
    Параметр Endianness формата : Big
    Идентификатор кодека : A_AC3
    Продолжительность : 2 ч. 11 м.
    Вид битрейта : Постоянный
    Битрейт : 160 Кбит/сек
    Каналы : 2 канала
    Расположение каналов : Front: L R
    Частота : 48, 0 КГц
    Частота кадров : 31, 250 кадров/сек (1536 SPF)
    Битовая глубина : 16 бит
    Метод сжатия : С потерями
    Размер потока : 150 Мбайт (7%)
    Заголовок : iTunes (ELEKTRI4KA.UNIONGANG)
    Язык : Russian
    ServiceKind/String : Complete Main
    Default : Да
    Forced : Нет
    ENCODING_INFO : AC3 AC3 CBR 160kbps
    Меню
    00: 00: 00.000 : : ذ“ذذ°ذ²ذ° 1
    00: 03: 56.041 : : ذ“ذذ°ذ²ذ° 2
    00: 09: 23.124 : : ذ“ذذ°ذ²ذ° 3
    00: 18: 19.249 : : ذ“ذذ°ذ²ذ° 4
    00: 27: 39.289 : : ذ“ذذ°ذ²ذ° 5
    00: 36: 00.830 : : ذ“ذذ°ذ²ذ° 6
    00: 45: 05.455 : : ذ“ذذ°ذ²ذ° 7
    00: 51: 03.330 : : ذ“ذذ°ذ²ذ° 8
    00: 57: 57.121 : : ذ“ذذ°ذ²ذ° 9
    01: 03: 24.579 : : ذ“ذذ°ذ²ذ° 10
    01: 08: 52.703 : : ذ“ذذ°ذ²ذ° 11
    01: 21: 23.494 : : ذ“ذذ°ذ²ذ° 12
    01: 27: 46.744 : : ذ“ذذ°ذ²ذ° 13
    01: 37: 29.285 : : ذ“ذذ°ذ²ذ° 14
    01: 41: 41.867 : : ذ“ذذ°ذ²ذ° 15
    01: 50: 58.199 : : ذ“ذذ°ذ²ذ° 16
    01: 55: 22.781 : : ذ“ذذ°ذ²ذ° 17
    02: 00: 59.488 : : ذ“ذذ°ذ²ذ° 18

    Скриншоты для ознакомления



    Все одноименные релизы в Клубе
    Время раздачи: 19 - 23 (до появления первых 3-5 скачавших)

    Онлайн видео Идеальный пациент



    Идеальный пациент / The Perfect Patient (2019) WEB-DLRip [H.265] [10-bit] торрент скачать бесплатно
    Рейтинг →
     (голосов: 1, оценка 5/5, голосовать можно 1 раз )

    Другие торренты по теме:

  • Идеальный пациент / The Perfect Patient (2019) WEB-DL [H.264 / 720p-LQ]
  • Идеальный пациент / The Perfect Patient (2019) WEB-DL [H.264 / 1080p-LQ]
  • Идеальный пациент / The Perfect Patient (2019) WEB-DL [1080p] ATV
  • Идеальный пациент / The Perfect Patient (2019) WEB-DL [720p] ATV
  • Идеальный пациент / The Perfect Patient (2019) WEB-DLRip
  • Идеальный пациент / The Perfect Patient (2019) WEB-DLRip [H.264 / 720p-LQ] [10 bit] [DUB]
  • Идеальный пациент / The Perfect Patient (2019) BDRip [H.264 / 1080p]
  • Идеальный пациент / The Perfect Patient (2019) BDRemux [H.264 / 1080p]


    • Комментарии (0):

      Информация

      Информация

        Посетители, находящиеся в группе Гости, не могут оставлять комментарии в данной новости.

        ↓ Меню




        ↓ Опрос

        Вы добавили сайт в закладки?
        Да
        Нет


        Популярное