.
Авторизация | Регистрация
bitok.xyz
Торрент скачать бесплатно Фильмы торрент скачать Доктор Сон / Doctor Sleep (2019) HDRip [H.264 / 1080p-LQ] [Theatrical Cut] торрент скачать бесплатно


    Доктор Сон / Doctor Sleep (2019) HDRip [H.264 / 1080p-LQ] [Theatrical Cut] торрент скачать бесплатно

    Дата: 30-01-2020, 05:00 | .torrent скачали: 0

    Доктор Сон / Doctor Sleep (2019) HDRip [H.264 / 1080p-LQ] [Theatrical Cut]Производство: США, Великобритания | Warner Bros., Intrepid Pictures, Vertigo Ent.
    Жанр: Ужасы, фэнтези, триллер, драма
    Режиссер: Майк Флэнеган
    Продюсер: Джон Берг, Акива Голдсман, Стивен Кинг

    Актеры
    Юэн Макгрегор, Ребекка Фергюсон, Кайли Кёрран, Брюс Гринвуд, Зан Маккларнон, Клифф Кёртис, Карл Ламбли, Джейкоб Тремблей, Закари Момо, Эмили Элин Линд

    Описание

    Прошло много лет с тех пор, как мальчик с паранормальными способностями Дэнни Торранс пережил кошмарный сезон любимого сериала в отеле Оверлук, где стал свидетелем гибели своего отца. Повзрослев, Дэн вёл жизнь маргинала-алкоголика, а теперь пытается завязать и устроился на работу в дом престарелых. Там он безошибочно определяет, кому из постояльцев подошла очередь покинуть этот мир, за что и получил прозвище Доктор Сон. Однажды с Дэном устанавливает связь невероятно одарённая сияющая девочка Абра. Вскоре ей потребуется его помощь, чтобы противостоять членам организации Истинный узел — группы охотников за особенными детьми.

    Возраст: 18+ (зрителям, достигшим 18 лет. запрещено для детей)
    Рейтинг MPAA: R (лицам до 17 лет обязательно присутствие взрослого)
    Дата мировой премьеры: 30 октября 2019
    Дата российской премьеры: 7 ноября 2019, Каро-Премьер
    Релиз от: NNMClub
    Продолжительность: 02: 32: 01
    Качество видео: HDRip (batonchik )
    Перевод: Дублированный (Лицензия BD CEE)
    Субтитры: Русский (Forced, Full), Английский (Full, SDH)
    Видео: AVC/H.264, 1920x1038, ~4943 Kbps, 23.976 fps
    Аудио 1: AC3, 6 ch, 448 Kbps | Русский
    Аудио 2: AC3, 6 ch, 640 Kbps | Английский--Information 28.01.2020 14: 10: 57 Standard error stream
    ---Information 28.01.2020 14: 11: 03 y4m info: 1920x1038p 1: 1 @ 24000/1001 fps (cfr)
    ---Information 28.01.2020 14: 11: 03 x264 info: using SAR=1/1
    ---Information 28.01.2020 14: 11: 03 x264 info: using cpu capabilities: MMX2 SSE2Fast SSSE3 SSE4.2 AVX
    ---Information 28.01.2020 14: 11: 03 x264 info: profile High, level 4.1, 4: 2: 0, 8-bit
    ---Information 29.01.2020 1: 29: 54 x264 info: frame I: 1753 Avg QP: 14.81 size: 184358
    ---Information 29.01.2020 1: 29: 54 x264 info: frame P: 41763 Avg QP: 16.00 size: 68530
    ---Information 29.01.2020 1: 29: 54 x264 info: frame B: 175180 Avg QP: 18.05 size: 13992

    ---Information 29.01.2020 1: 29: 54 x264 info: consecutive B-frames: 1.3% 2.0% 2.6% 13.4% 24.9% 30.3% 13.4% 8.9% 3.2%
    General
    Complete name : Доктор Сон_Doctor Sleep (2019) HDRip.H.264.1080p.LQ.Teatrical Cut.NNMClub.mkv
    Format : Matroska
    Format version : Version 4
    File size : 6.41 GiB
    Duration : 2 h 32 min
    Overall bit rate : 6 034 kb/s
    Movie name : Доктор Сон_Doctor Sleep (2019) HDRip.H.264.1080p.LQ.Teatrical Cut.NNMClub
    Encoded date : UTC 2020-01-29 06: 13: 44
    Writing application : mkvmerge v40.0.0 (\'Old Town Road + Pony\') 64-bit
    Writing library : libebml v1.3.9 + libmatroska v1.5.2
    Video
    ID : 1
    Format : AVC
    Format/Info : Advanced Video Codec
    Format profile : High@L4.1
    Format settings : CABAC/4 Ref Frames
    Format settings, CABAC : Yes
    Format settings, Reference frames : 4 frames
    Codec ID : V_MPEG4/ISO/AVC
    Duration : 2 h 32 min
    Bit rate : 4 943 kb/s
    Width : 1 920 pixels
    Height : 1 038 pixels
    Display aspect ratio : 1.85: 1
    Frame rate mode : Constant
    Frame rate : 23.976 (24000/1001) FPS
    Color space : YUV
    Chroma subsampling : 4: 2: 0
    Bit depth : 8 bits
    Scan type : Progressive
    Bits/(Pixel*Frame) : 0.103
    Stream size : 5.25 GiB (82%)
    Title : Доктор Сон_Doctor Sleep (2019) HDRip.H.264.1080p.LQ.Teatrical Cut.NNMClub
    Writing library : x264 core 158 r2984 3759fcb
    Encoding settings : cabac=1/ref=4/deblock=1: -3: -3/analyse=0x3: 0x133/me=umh/subme=9/psy=1/psy_rd=1.00: 0.25/mixed_ref=1/me_range=24/chroma_me=1/trellis=2/8x8dct=1/cqm=0/deadzone=6, 6/fast_pskip=0/chroma_qp_offset=-4/threads=12/lookahead_threads=2/sliced_threads=0/nr=0/decimate=0/interlaced=0/bluray_compat=0/constrained_intra=0/bframes=8/b_pyramid=2/b_adapt=2/b_bias=0/direct=1/weightb=1/open_gop=0/weightp=2/keyint=240/keyint_min=23/scenecut=40/intra_refresh=0/rc_lookahead=40/rc=crf/mbtree=1/crf=17.0/qcomp=0.60/qpmin=0/qpmax=69/qpstep=4/vbv_maxrate=50000/vbv_bufsize=62500/crf_max=0.0/nal_hrd=none/filler=0/ip_ratio=1.10/aq=3: 0.70
    Language : English
    Default : Yes
    Forced : No
    Audio #1
    ID : 2
    Format : AC-3
    Format/Info : Audio Coding 3
    Commercial name : Dolby Digital
    Codec ID : A_AC3
    Duration : 2 h 32 min
    Bit rate mode : Constant
    Bit rate : 448 kb/s
    Channel(s) : 6 channels
    Channel layout : L R C LFE Ls Rs
    Sampling rate : 48.0 kHz
    Frame rate : 31.250 FPS (1536 SPF)
    Compression mode : Lossy
    Stream size : 487 MiB (7%)
    Title : Дублированный (Лицензия BD CEE)
    Language : Russian
    Service kind : Complete Main
    Default : Yes
    Forced : No
    Audio #2
    ID : 3
    Format : AC-3
    Format/Info : Audio Coding 3
    Commercial name : Dolby Digital
    Codec ID : A_AC3
    Duration : 2 h 32 min
    Bit rate mode : Constant
    Bit rate : 640 kb/s
    Channel(s) : 6 channels
    Channel layout : L R C LFE Ls Rs
    Sampling rate : 48.0 kHz
    Frame rate : 31.250 FPS (1536 SPF)
    Compression mode : Lossy
    Stream size : 696 MiB (11%)
    Title : Оригинал
    Language : English
    Service kind : Complete Main
    Default : No
    Forced : No
    Text #1
    ID : 4
    Format : UTF-8
    Codec ID : S_TEXT/UTF8
    Codec ID/Info : UTF-8 Plain Text
    Duration : 2 h 14 min
    Bit rate : 1 b/s
    Count of elements : 42
    Stream size : 1.47 KiB (0%)
    Title : Forced
    Language : Russian
    Default : Yes
    Forced : No
    Text #2
    ID : 5
    Format : UTF-8
    Codec ID : S_TEXT/UTF8
    Codec ID/Info : UTF-8 Plain Text
    Duration : 2 h 25 min
    Bit rate : 60 b/s
    Count of elements : 1656
    Stream size : 64.7 KiB (0%)
    Title : Full
    Language : Russian
    Default : No
    Forced : No
    Text #3
    ID : 6
    Format : UTF-8
    Codec ID : S_TEXT/UTF8
    Codec ID/Info : UTF-8 Plain Text
    Duration : 2 h 25 min
    Bit rate : 37 b/s
    Count of elements : 1693
    Stream size : 39.7 KiB (0%)
    Title : Full
    Language : English
    Default : No
    Forced : No
    Text #4
    ID : 7
    Format : UTF-8
    Codec ID : S_TEXT/UTF8
    Codec ID/Info : UTF-8 Plain Text
    Duration : 2 h 25 min
    Bit rate : 42 b/s
    Count of elements : 1943
    Stream size : 45.4 KiB (0%)
    Title : SDH
    Language : English
    Default : No
    Forced : No
    Menu
    00: 00: 00.000 : en: Chapter 01
    00: 10: 36.302 : en: Chapter 02
    00: 19: 44.350 : en: Chapter 03
    00: 29: 23.345 : en: Chapter 04
    00: 39: 51.931 : en: Chapter 05
    00: 49: 47.318 : en: Chapter 06
    00: 58: 24.710 : en: Chapter 07
    01: 06: 00.748 : en: Chapter 08
    01: 11: 00.756 : en: Chapter 09
    01: 20: 35.497 : en: Chapter 10
    01: 27: 07.013 : en: Chapter 11
    01: 35: 13.458 : en: Chapter 12
    01: 44: 01.902 : en: Chapter 13
    01: 52: 52.724 : en: Chapter 14
    02: 01: 22.734 : en: Chapter 15
    02: 08: 01.507 : en: Chapter 16
    02: 17: 27.156 : en: Chapter 17
    02: 23: 06.703 : en: Chapter 18
    02: 26: 22.107 : en: Chapter 19


    Онлайн видео Доктор Сон



    Доктор Сон / Doctor Sleep (2019) HDRip [H.264 / 1080p-LQ] [Theatrical Cut] торрент скачать бесплатно
    Рейтинг →
     (голосов: 1, оценка 5/5, голосовать можно 1 раз )

    Другие торренты по теме:

  • Доктор Кто. Возвращение Доктора Мистерио / Doctor Who. The Return of Doctor Mysterio (2016) WEB-DL [H.264 / 1080p-LQ] (сезон 10, серия 0) BaibaKo
  • Доктор Кто / Doctor Who (2014) WEB-DL [H.264 / 720p-LQ] (Сезон 8, серии 1-6 из 12) (BaibaKo) (обновляемая) скачать через торрент бесплатно
  • Доктор Кто / Doctor Who (2014) WEB-DLRip (Сезон 8, серии 1-6 из 12) (BaibaKo) (обновляемая) скачать через торрент бесплатно
  • Доктор Блейк / The Doctor Blake Mysteries (2014) WEB-DLRip (Сезон 2 / Серии 1-4 из 10) DreamRecords (обновляемая) скачать через торрент бесплатно
  • Доктор Кто / Doctor Who (2014) BDRip [H.264 / 1080р-LQ] (сезон 8, серии 0 - 13 из 13) (BaibaKo) скачать через торрент бесплатно
  • Доверьтесь мне, я доктор (фильм 1) / Trust Me, Im A Doctor (2013) IPTVRip скачать через торрент бесплатно
  • Доктор в ловушке / Doctor in Trouble (1970) DVDRip [H.264] скачать через торрент бесплатно
  • Доктор и его медсестры / Doctor in Clover (1966) DVDRip [H.264] скачать через торрент бесплатно


    • Комментарии (0):

      Информация

      Информация

        Посетители, находящиеся в группе Гости, не могут оставлять комментарии в данной новости.

        ↓ Меню




        ↓ Опрос

        Вы добавили сайт в закладки?
        Да
        Нет


        Популярное