.
Авторизация | Регистрация
bitok.xyz
Торрент скачать бесплатно Фильмы торрент скачать Гарриет / Harriet (2019) BDRip [H.264 / 1080p] [DVO] [PR] торрент скачать бесплатно


    Гарриет / Harriet (2019) BDRip [H.264 / 1080p] [DVO] [PR] торрент скачать бесплатно

    Дата: 30-01-2020, 05:00 | .torrent скачали: 0

    Гарриет / Harriet (2019) BDRip [H.264 / 1080p] [DVO] [PR]Производство: США, Martin Chase Productions, New Balloon, Perfect World Pictures
    Жанр: Биография, история, драма
    Режиссер: Кейси Леммонс

    Актеры
    Синтиа Эриво, Лесли Одом мл., Джо Элвин, Кларк Питерс, Ванесса Белл Кэллоуэй, Омар Дж. Дорси, Генри Хантер Холл, Тим Гини, Ник Баста, Джозеф Андерсон

    Описание

    История Гарриет Табмен, бывшей рабыни, аболиционистки, которая посвятила жизнь борьбе против рабства. Гарриет регулярно совершала поездки на юг, откуда вывозила рабов, и приняла активное участие в деятельности подземной железной дороги, переправлявшей беглых рабов из южных штатов на Север или в Канаду.

    Рейтинг MPAA: PG-13 (детям до 13 лет просмотр нежелателен)
    Дата мировой премьеры: 10 сентября 2019
    Релиз от: mike7025
    Продолжительность: 02: 05: 06
    Качество видео: BDRip
    Перевод: Двухголосый любительский (LakeFilms)
    Субтитры: Русские StasSlender, английские
    Видео: AVC/H.264, 1920х804, ~17.6 Mbps
    Аудио 1: AC3, 2 ch, 256 Kbps - Русский (DVO, LakeFilms)
    Аудио 2: Е-AC3, 8 ch, 1536 Kbps - Английский
    x264 frame I: 1282 Avg QP: 13.52 size: 220929
    x264 frame P: 41353 Avg QP: 14.89 size: 105172
    x264 frame B: 137337 Avg QP: 16.24 size: 52366
    x264 consecutive B-frames: 2.1% 2.9% 7.3% 13.4% 15.0% 48.0% 5.3% 1.1% 1.3% 0.8% 1.0% 0.5% 1.1%
    encoded 179972 frames, 22.19 fps, 17180.94 kb/s, 16425.7 MB
    General
    Unique ID : 291976624578977418343802697628258456839 (0xDBA8A705E663EFE258A8B9BB7BA0D507)
    Complete name : G: Harriet.2019.BDRip.1080p.mkv
    Format : Matroska
    Format version : Version 4
    File size : 16.9 GiB
    Duration : 2 h 5 min
    Overall bit rate : 19.4 Mb/s
    Encoded date : UTC 2020-01-29 02: 46: 40
    Writing application : mkvmerge v20.0.0 (\'I Am The Sun\') 64-bit
    Writing library : libebml v1.3.5 + libmatroska v1.4.8
    Video
    ID : 1
    Format : AVC
    Format/Info : Advanced Video Codec
    Format profile : High@L4.1
    Format settings : CABAC/5 Ref Frames
    Format settings, CABAC : Yes
    Format settings, Reference frames : 5 frames
    Codec ID : V_MPEG4/ISO/AVC
    Duration : 2 h 5 min
    Bit rate : 17.6 Mb/s
    Width : 1 920 pixels
    Height : 804 pixels
    Display aspect ratio : 2.40: 1
    Frame rate mode : Constant
    Frame rate : 23.976 (24000/1001) FPS
    Color space : YUV
    Chroma subsampling : 4: 2: 0
    Bit depth : 8 bits
    Scan type : Progressive
    Bits/(Pixel*Frame) : 0.475
    Stream size : 15.3 GiB (91%)
    Title : iFT
    Writing library : x264 core 159 r2991+49 ~ Encoded by Mocunaman in Portugal
    Encoding settings : cabac=1/ref=5/deblock=1: -3: -3/analyse=0x3: 0x113/me=umh/subme=10/psy=1/fade_compensate=0.00/psy_rd=1.00: 0.00/mixed_ref=1/me_range=32/chroma_me=1/trellis=2/8x8dct=1/cqm=0/deadzone=21, 11/fast_pskip=0/chroma_qp_offset=-2/threads=25/lookahead_threads=6/sliced_threads=0/nr=0/decimate=0/interlaced=0/bluray_compat=0/constrained_intra=0/fgo=0/bframes=11/b_pyramid=2/b_adapt=2/b_bias=0/direct=3/weightb=1/open_gop=0/weightp=2/keyint=250/keyint_min=23/scenecut=40/intra_refresh=0/rc_lookahead=60/rc=crf/mbtree=0/crf=16.5000/qcomp=0.60/qpmin=0: 0: 0/qpmax=69: 69: 69/qpstep=4/vbv_maxrate=62500/vbv_bufsize=78125/crf_max=0.0/nal_hrd=none/filler=0/ip_ratio=1.30/pb_ratio=1.20/aq=3: 0.80/aq-sensitivity=10.00/aq-factor=1.00: 1.00: 1.00/aq2=0/aq3=0
    Language : English
    Default : Yes
    Forced : No
    Color range : Limited
    Color primaries : BT.709
    Transfer characteristics : BT.709
    Matrix coefficients : BT.709
    Audio #1
    ID : 2
    Format : AC-3
    Format/Info : Audio Coding 3
    Commercial name : Dolby Digital
    Codec ID : A_AC3
    Duration : 2 h 5 min
    Bit rate mode : Constant
    Bit rate : 256 kb/s
    Channel(s) : 2 channels
    Channel layout : L R
    Sampling rate : 48.0 kHz
    Frame rate : 31.250 FPS (1536 SPF)
    Compression mode : Lossy
    Stream size : 229 MiB (1%)
    Title : DVO LakeFilms
    Language : Russian
    Service kind : Complete Main
    Default : Yes
    Forced : No
    Audio #2
    ID : 3
    Format : E-AC-3
    Format/Info : Enhanced AC-3
    Commercial name : Dolby Digital Plus
    Format profile : Blu-ray Disc
    Codec ID : A_EAC3
    Duration : 2 h 5 min
    Bit rate mode : Constant
    Bit rate : 1 536 kb/s
    Channel(s) : 6 channels
    Channel(s)_Original : 8 channels
    ChannelLayout_Original : L R C LFE Ls Rs Lrs Rrs
    Sampling rate : 48.0 kHz
    Frame rate : 31.250 FPS (1536 SPF)
    Compression mode : Lossy
    Stream size : 1.34 GiB (8%)
    Title : E-AC3 DD+7.1
    Language : English
    Service kind : Complete Main
    Default : No
    Forced : No
    Text #1
    ID : 4
    Format : UTF-8
    Codec ID : S_TEXT/UTF8
    Codec ID/Info : UTF-8 Plain Text
    Duration : 1 h 57 min
    Bit rate : 88 b/s
    Count of elements : 1616
    Stream size : 76.2 KiB (0%)
    Title : Notabenoid/StasSlender
    Language : Russian
    Default : No
    Forced : No
    Text #2
    ID : 5
    Format : UTF-8
    Codec ID : S_TEXT/UTF8
    Codec ID/Info : UTF-8 Plain Text
    Duration : 2 h 1 min
    Bit rate : 51 b/s
    Count of elements : 1536
    Stream size : 45.8 KiB (0%)
    Language : English
    Default : No
    Forced : No
    Menu
    00: 00: 00.000 : en: Chapter 01
    00: 07: 19.522 : en: Chapter 02
    00: 15: 38.229 : en: Chapter 03
    00: 21: 44.845 : en: Chapter 04
    00: 26: 02.269 : en: Chapter 05
    00: 32: 32.534 : en: Chapter 06
    00: 42: 15.116 : en: Chapter 07
    00: 47: 42.693 : en: Chapter 08
    00: 53: 37.673 : en: Chapter 09
    01: 00: 14.903 : en: Chapter 10
    01: 05: 27.841 : en: Chapter 11
    01: 12: 32.974 : en: Chapter 12
    01: 20: 03.173 : en: Chapter 13
    01: 24: 47.457 : en: Chapter 14
    01: 29: 36.705 : en: Chapter 15
    01: 34: 13.314 : en: Chapter 16
    01: 42: 48.162 : en: Chapter 17
    01: 47: 58.389 : en: Chapter 18
    01: 54: 02.836 : en: Chapter 19
    01: 58: 13.586 : en: Chapter 20

    Скриншоты для ознакомления




    Все одноименные релизы в Клубе
    Время раздачи: 24/7 (до появления первых 3-5 скачавших)

    Онлайн видео Гарриет



    Гарриет / Harriet (2019) BDRip [H.264 / 1080p] [DVO] [PR] торрент скачать бесплатно
    Рейтинг →
     (голосов: 1, оценка 4/5, голосовать можно 1 раз )

    Другие торренты по теме:

  • Гарриет / Harriet (2019) WEBRip [H.264 / 720p-LQ] [DVO] [AD]


    • Комментарии (0):

      Информация

      Информация

        Посетители, находящиеся в группе Гости, не могут оставлять комментарии в данной новости.

        ↓ Меню




        ↓ Опрос

        Вы добавили сайт в закладки?
        Да
        Нет


        Популярное