.
Авторизация | Регистрация
bitok.xyz
Торрент скачать бесплатно Фильмы торрент скачать Сицилийский клан / Le clan des siciliens (1969) BDRip [H.264 / 720p] [Английская версия] торрент скачать бесплатно


    Сицилийский клан / Le clan des siciliens (1969) BDRip [H.264 / 720p] [Английская версия] торрент скачать бесплатно

    Дата: 30-01-2020, 05:00 | .torrent скачали: 2

    Сицилийский клан / Le clan des siciliens (1969) BDRip [H.264 / 720p] [Английская версия]Производство: Франция, Италия/Les Productions Fox Europa, Les Films du Siècle
    Жанр: Драма, криминал
    Режиссер: Анри Верней

    Актеры
    Жан Габен, Ален Делон, Лино Вентура, Ирина Демик, Амедео Наццари, Филипп Баронне, Карен Блангернон, Ив Брэнвиль, Жерар Бур, Элиза Чегани

    Описание

    По одноимённому роману Огюста Ле Бретона.
    Молодой гангстер Роже Сарте совершает побег из фургона, перевозящего его в тюрьму из Дворца Правосудия. Все проходит удачно благодаря помощи главы сицилийского клана Витторио Маналезе. Роже нужен ему для участия в дерзком ограблении. Клан намерен совершить кражу уникальной коллекции драгоценностей, собранной в Риме для международной выставки.
    К операции готовятся долго и тщательно. Поскольку выставка будет проходить в Нью-Йорке, американский друг Витторио Тони Никозиа предлагает привести план в исполнение во время полета и захватить добычу.

    Возраст: 16+ (зрителям, достигшим 16 лет)
    Рейтинг MPAA: G (нет возрастных ограничений)
    Продолжительность: 01: 58: 26
    Качество видео: BDRip
    Перевод: Многоголосый профессиональный
    Субтитры: Английские
    Видео: AVC/H.264, 1280x544, ~6200 kbps
    Аудио 1: AC3, 2 ch, 192 kbps | Русский – MVO (Film Prestige)
    Аудио 2: AC3, 2 ch, 192 kbps | Русский – MVO (DVD Магия)
    Аудио 3: AC3, 2 ch, 192 kbps | Французский (Оригинал)
    Общее
    Уникальный идентификатор : 234369736988701745885271781391524396923 (0xB051F82E097E4C46B57D90E61BB37F7B)
    Полное имя : I: Жан ГабенСицилийский кланСицилийский клан. 1969.BDRip 720p.mkv
    Формат : Matroska
    Версия формата : Version 4/Version 2
    Размер файла : 5, 61 Гбайт
    Продолжительность : 1 ч. 58 м.
    Общий поток : 6777 Кбит/сек
    Название фильма : Release for Topmost
    Дата кодирования : UTC 2020-01-28 15: 11: 51
    Программа кодирования : mkvmerge v6.2.0 (\'Promised Land\') built on Apr 28 2013 12: 22: 01
    Библиотека кодирования : libebml v1.3.0 + libmatroska v1.4.0
    Attachment : Yes
    Видео
    Идентификатор : 1
    Формат : AVC
    Формат/Информация : Advanced Video Codec
    Профиль формата : High@L4.1
    Параметр CABAC формата : Да
    Параметр ReFrames формата : 12 кадров
    Идентификатор кодека : V_MPEG4/ISO/AVC
    Продолжительность : 1 ч. 58 м.
    Битрейт : 6200 Кбит/сек
    Ширина : 1280 пикселей
    Высота : 544 пикселя
    Соотношение сторон : 2, 35: 1
    Режим частоты кадров : Постоянный
    Частота кадров : 23, 976 кадра/сек
    Цветовое пространство : YUV
    Субдискретизация насыщенности : 4: 2: 0
    Битовая глубина : 8 бит
    Тип развёртки : Прогрессивная
    Бит/(Пиксели*Кадры) : 0.371
    Размер потока : 5, 02 Гбайт (90%)
    Заголовок : Сицилийский клан. 1969 /Release for Topmost/
    Библиотека кодирования : x264 core 146 r2538 121396c
    Настройки программы : cabac=1/ref=12/deblock=1: -3: -3/analyse=0x3: 0x113/me=umh/subme=11/psy=1/psy_rd=1.00: 0.15/mixed_ref=1/me_range=32/chroma_me=1/trellis=2/8x8dct=1/cqm=0/deadzone=21, 11/fast_pskip=0/chroma_qp_offset=-3/threads=12/lookahead_threads=2/sliced_threads=0/nr=0/decimate=0/interlaced=0/bluray_compat=0/constrained_intra=0/bframes=8/b_pyramid=2/b_adapt=2/b_bias=0/direct=1/weightb=1/open_gop=0/weightp=2/keyint=240/keyint_min=23/scenecut=40/intra_refresh=0/rc_lookahead=40/rc=2pass/mbtree=0/bitrate=6200/ratetol=1.0/qcomp=0.60/qpmin=0/qpmax=69/qpstep=4/cplxblur=20.0/qblur=0.5/vbv_maxrate=14000/vbv_bufsize=14000/nal_hrd=none/filler=0/ip_ratio=1.40/pb_ratio=1.30/aq=1: 0.90
    Язык : French
    Default : Да
    Forced : Нет
    Аудио #1
    Идентификатор : 2
    Формат : AC-3
    Формат/Информация : Audio Coding 3
    Расширение режима : CM (complete main)
    Параметр Endianness формата : Big
    Идентификатор кодека : A_AC3
    Продолжительность : 1 ч. 58 м.
    Вид битрейта : Постоянный
    Битрейт : 192 Кбит/сек
    Каналы : 2 канала
    Расположение каналов : Front: L R
    Частота : 48, 0 КГц
    Битовая глубина : 16 бит
    Метод сжатия : С потерями
    Размер потока : 163 Мбайт (3%)
    Заголовок : MVO
    Язык : Russian
    Default : Да
    Forced : Нет
    Аудио #2
    Идентификатор : 3
    Формат : AC-3
    Формат/Информация : Audio Coding 3
    Расширение режима : CM (complete main)
    Параметр Endianness формата : Big
    Идентификатор кодека : A_AC3
    Продолжительность : 1 ч. 58 м.
    Вид битрейта : Постоянный
    Битрейт : 192 Кбит/сек
    Каналы : 2 канала
    Расположение каналов : Front: L R
    Частота : 48, 0 КГц
    Битовая глубина : 16 бит
    Метод сжатия : С потерями
    Размер потока : 163 Мбайт (3%)
    Заголовок : MVO
    Язык : Russian
    Default : Нет
    Forced : Нет
    Аудио #3
    Идентификатор : 4
    Формат : AC-3
    Формат/Информация : Audio Coding 3
    Расширение режима : CM (complete main)
    Параметр Endianness формата : Big
    Идентификатор кодека : A_AC3
    Продолжительность : 1 ч. 58 м.
    Вид битрейта : Постоянный
    Битрейт : 192 Кбит/сек
    Каналы : 2 канала
    Расположение каналов : Front: L R
    Частота : 48, 0 КГц
    Битовая глубина : 16 бит
    Метод сжатия : С потерями
    Размер потока : 163 Мбайт (3%)
    Заголовок : original
    Язык : French
    Default : Нет
    Forced : Нет
    Текст
    Идентификатор : 5
    Формат : UTF-8
    Идентификатор кодека : S_TEXT/UTF8
    Идентификатор кодека/Информация : UTF-8 Plain Text
    Заголовок : srt
    Язык : English
    Default : Нет
    Forced : Нет
    Меню
    00: 00: 00.000 : en: Chapter 1 (00: 00: 00)
    00: 14: 15.229 : en: Chapter 2 (00: 14: 15)
    00: 29: 20.925 : en: Chapter 3 (00: 29: 20)
    00: 47: 26.260 : en: Chapter 4 (00: 47: 26)
    01: 04: 39.125 : en: Chapter 5 (01: 04: 39)
    01: 16: 03.475 : en: Chapter 6 (01: 16: 03)
    01: 30: 15.076 : en: Chapter 7 (01: 30: 15)
    01: 43: 08.140 : en: Chapter 8 (01: 43: 08)

    Скриншоты для ознакомления




    Все одноименные релизы в Клубе
    Время раздачи: 24/7 до 5 скачавших (до появления первых 3-5 скачавших)

    Онлайн видео Сицилийский клан



    Сицилийский клан / Le clan des siciliens (1969) BDRip [H.264 / 720p] [Английская версия] торрент скачать бесплатно
    Рейтинг →
     (голосов: 1, оценка 3/5, голосовать можно 1 раз )

    Другие торренты по теме:

  • Сицилийский клан / Le clan des Siciliens (1969) DVB [H.264 / 1080i-LQ]
  • Сицилийский клан / Le clan des Siciliens (1969) BDRip [H.265 / 1080p-LQ] [10-bit] [Французская версия]
  • Сицилийский клан / Le clan des Siciliens (1969) BDRip [H.264]


    • Комментарии (0):

      Информация

      Информация

        Посетители, находящиеся в группе Гости, не могут оставлять комментарии в данной новости.

        ↓ Меню




        ↓ Опрос

        Вы добавили сайт в закладки?
        Да
        Нет


        Популярное