.
Авторизация | Регистрация
bitok.xyz
Торрент скачать бесплатно Фильмы торрент скачать Дневник наемного убийцы / Diary of a Hitman (1991) BDRip [H.264 / 720p] [GER Transfer] торрент скачать бесплатно


    Дневник наемного убийцы / Diary of a Hitman (1991) BDRip [H.264 / 720p] [GER Transfer] торрент скачать бесплатно

    Дата: 30-01-2020, 05:00 | .torrent скачали: 2

    Дневник наемного убийцы / Diary of a Hitman (1991) BDRip [H.264 / 720p] [GER Transfer]Производство: США/Vision International, Continental Film Group Ltd.
    Жанр: Драма, Криминал
    Режиссер: Рой Лондон
    Продюсер: Амин К. Чаудри, Марк Дэймон, Тим Хили

    Актеры
    Форест Уитакер, Шерилин Фенн, Шэрон Стоун, Питер Уайт, Джон Бедфорд Ллойд, Сеймур Кэссел, Дэн Камин, Уэйн Кроуфорд, Льюис Смит, Бретт Рикаби

    Описание

    Душевным человеком был этот киллер Деккер! Он любил детей и своих соседей. и никого не обижал. А убийства — это чисто бизнес. и ничего личного. Но однажды неприятный тип по имени Зейн нанял Деккера для убийства своей жены и грудного младенца. Деккер пошел на дело (чисто бизнес)… и это переменило его жизнь!..

    Возраст: 18+ (зрителям, достигшим 18 лет. запрещено для детей)
    Рейтинг MPAA: R (лицам до 17 лет обязательно присутствие взрослого)
    Релиз от: k.e.n MegaPeer
    Продолжительность: 01: 30: 20
    Качество видео: BDRip 720p
    Перевод: Профессиональный двухголосый, авторский
    Субтитры: Английские
    Видео: AVC, 1280x692, 23.976 fps, 5968 kbps
    Аудио #1: AC3, 48 kHz, 2 ch, 192 kbps - DVO (НТВ+)
    Аудио #2: AC3, 48 kHz, 2 ch, 192 kbps - AVO (А.Гаврилов)
    Аудио #3: AC3, 48 kHz, 2 ch, 192 kbps - AVO (С.Визгунов)
    Аудио #4: AC3, 48 kHz, 2 ch, 192 kbps - Английский
    Аудио #5: AC3, 48 kHz, 2 ch, 192 kbps - НемецкийFormat : Matroska
    Format version : Version 2
    File size : 4.37 GiB
    Duration : 1 h 30 min
    Overall bit rate : 6 928 kb/s
    Encoded date : UTC 2020-01-29 08: 33: 36
    Writing application : mkvmerge v5.3.0 (\'I could have danced\') built on Feb 9 2012 10: 38: 07
    Writing library : libebml v1.2.3 + libmatroska v1.3.0
    Cover : Yes
    Attachments : cover (2).jpg
    Video
    ID : 1
    Format : AVC
    Format/Info : Advanced Video Codec
    Format profile : High@L4.1
    Format settings : CABAC/9 Ref Frames
    Format settings, CABAC : Yes
    Format settings, ReFrames : 9 frames
    Codec ID : V_MPEG4/ISO/AVC
    Duration : 1 h 30 min
    Bit rate : 5 968 kb/s
    Width : 1 280 pixels
    Height : 692 pixels
    Display aspect ratio : 1.85: 1
    Frame rate mode : Constant
    Frame rate : 23.976 (24000/1001) FPS
    Color space : YUV
    Chroma subsampling : 4: 2: 0
    Bit depth : 8 bits
    Scan type : Progressive
    Bits/(Pixel*Frame) : 0.281
    Stream size : 3.68 GiB (84%)
    Writing library : x264 core 158 r2984 3759fcb
    Encoding settings : cabac=1/ref=9/deblock=1: -3: -3/analyse=0x3: 0x133/me=umh/subme=11/psy=1/psy_rd=1.00: 0.10/mixed_ref=1/me_range=32/chroma_me=1/trellis=2/8x8dct=1/cqm=0/deadzone=21, 11/fast_pskip=0/chroma_qp_offset=-3/threads=12/lookahead_threads=3/sliced_threads=0/nr=0/decimate=0/interlaced=0/bluray_compat=0/constrained_intra=0/bframes=12/b_pyramid=2/b_adapt=2/b_bias=0/direct=3/weightb=1/open_gop=0/weightp=2/keyint=240/keyint_min=23/scenecut=40/intra_refresh=0/rc_lookahead=60/rc=2pass/mbtree=0/bitrate=5968/ratetol=1.0/qcomp=0.75/qpmin=0/qpmax=69/qpstep=4/cplxblur=20.0/qblur=0.5/vbv_maxrate=50000/vbv_bufsize=62500/nal_hrd=none/filler=0/ip_ratio=1.30/pb_ratio=1.20/aq=3: 0.90
    Language : English
    Default : Yes
    Forced : No
    Color range : Limited
    Color primaries : BT.709
    Transfer characteristics : BT.709
    Matrix coefficients : BT.709
    Audio #1
    ID : 2
    Format : AC-3
    Format/Info : Audio Coding 3
    Commercial name : Dolby Digital
    Codec ID : A_AC3
    Duration : 1 h 30 min
    Bit rate mode : Constant
    Bit rate : 192 kb/s
    Channel(s) : 2 channels
    Channel layout : L R
    Sampling rate : 48.0 kHz
    Frame rate : 31.250 FPS (1536 SPF)
    Bit depth : 16 bits
    Compression mode : Lossy
    Stream size : 124 MiB (3%)
    Title : DVO НТВ+
    Language : Russian
    Service kind : Complete Main
    Default : Yes
    Forced : No
    Audio #2
    ID : 3
    Format : AC-3
    Format/Info : Audio Coding 3
    Commercial name : Dolby Digital
    Codec ID : A_AC3
    Duration : 1 h 30 min
    Bit rate mode : Constant
    Bit rate : 192 kb/s
    Channel(s) : 2 channels
    Channel layout : L R
    Sampling rate : 48.0 kHz
    Frame rate : 31.250 FPS (1536 SPF)
    Bit depth : 16 bits
    Compression mode : Lossy
    Stream size : 124 MiB (3%)
    Title : AVO А.Гаврилов
    Language : Russian
    Service kind : Complete Main
    Default : No
    Forced : No
    Audio #3
    ID : 4
    Format : AC-3
    Format/Info : Audio Coding 3
    Commercial name : Dolby Digital
    Codec ID : A_AC3
    Duration : 1 h 30 min
    Bit rate mode : Constant
    Bit rate : 192 kb/s
    Channel(s) : 2 channels
    Channel layout : L R
    Sampling rate : 48.0 kHz
    Frame rate : 31.250 FPS (1536 SPF)
    Bit depth : 16 bits
    Compression mode : Lossy
    Stream size : 124 MiB (3%)
    Title : AVO С.Визгунов
    Language : Russian
    Service kind : Complete Main
    Default : No
    Forced : No
    Audio #4
    ID : 5
    Format : AC-3
    Format/Info : Audio Coding 3
    Commercial name : Dolby Digital
    Codec ID : A_AC3
    Duration : 1 h 30 min
    Bit rate mode : Constant
    Bit rate : 192 kb/s
    Channel(s) : 2 channels
    Channel layout : L R
    Sampling rate : 48.0 kHz
    Frame rate : 31.250 FPS (1536 SPF)
    Bit depth : 16 bits
    Compression mode : Lossy
    Stream size : 124 MiB (3%)
    Language : English
    Service kind : Complete Main
    Default : No
    Forced : No
    Audio #5
    ID : 6
    Format : AC-3
    Format/Info : Audio Coding 3
    Commercial name : Dolby Digital
    Codec ID : A_AC3
    Duration : 1 h 30 min
    Bit rate mode : Constant
    Bit rate : 192 kb/s
    Channel(s) : 2 channels
    Channel layout : L R
    Sampling rate : 48.0 kHz
    Frame rate : 31.250 FPS (1536 SPF)
    Bit depth : 16 bits
    Compression mode : Lossy
    Stream size : 124 MiB (3%)
    Language : German
    Service kind : Complete Main
    Default : No
    Forced : No
    Text
    ID : 7
    Format : UTF-8
    Codec ID : S_TEXT/UTF8
    Codec ID/Info : UTF-8 Plain Text
    Language : English
    Default : No
    Forced : No
    Menu
    00: 00: 00.000 : en: Chapter 1
    00: 06: 19.379 : en: Chapter 2
    00: 15: 19.919 : en: Chapter 3
    00: 21: 26.285 : en: Chapter 4
    00: 29: 07.746 : en: Chapter 5
    00: 36: 43.201 : en: Chapter 6
    00: 47: 30.848 : en: Chapter 7
    00: 51: 26.083 : en: Chapter 8
    00: 56: 34.391 : en: Chapter 9
    01: 08: 28.104 : en: Chapter 10
    01: 13: 54.430 : en: Chapter 11
    01: 22: 04.920 : en: Chapter 12
    Скриншоты для ознакомления



    Все одноименные релизы в Клубе
    Время раздачи: 24/7 (круглосуточно)

    Онлайн видео Дневник наемного убийцы



    Дневник наемного убийцы / Diary of a Hitman (1991) BDRip [H.264 / 720p] [GER Transfer] торрент скачать бесплатно
    Рейтинг →
     (голосов: 1, оценка 5/5, голосовать можно 1 раз )

    Другие торренты по теме:

  • Дневник наемного убийцы / Diary of a Hitman (1991) HDRip [AVO]
  • Дневник наемного убийцы / Diary of a Hitman (1991) HDTVRip
  • Дневник наемного убийцы / Diary of a Hitman (1991) BDRemux [H.264 / 1080p] [GER Transfer]


    • Комментарии (0):

      Информация

      Информация

        Посетители, находящиеся в группе Гости, не могут оставлять комментарии в данной новости.

        ↓ Меню




        ↓ Опрос

        Вы добавили сайт в закладки?
        Да
        Нет


        Популярное