.
Авторизация | Регистрация
bitok.xyz
Торрент скачать бесплатно Фильмы торрент скачать Люди Икс: Тёмный Феникс / Dark Phoenix (2019) BDRip [H.265 / 1080p] [10-bit] торрент скачать бесплатно


    Люди Икс: Тёмный Феникс / Dark Phoenix (2019) BDRip [H.265 / 1080p] [10-bit] торрент скачать бесплатно

    Дата: 30-01-2020, 05:00 | .torrent скачали: 3

    Люди Икс: Тёмный Феникс / Dark Phoenix (2019) BDRip [H.265 / 1080p] [10-bit]Производство: США, Канада/Twentieth Century Fox, Bad Hat Harry Productions, Donners\' Company
    Жанр: фантастика, боевик, приключения
    Режиссер: Саймон Кинберг

    Актеры
    Джеймс МакЭвой, Майкл Фассбендер, Дженнифер Лоуренс, Николас Холт, Софи Тёрнер, Тай Шеридан, Александра Шипп, Эван Питерс, Коди Смит-МакФи, Джессика Честейн

    Описание
    История Джин Грей, которая разворачивается в тот момент, когда героиня превращается в культового Тёмного Феникса. Во время опасной для жизни спасательной миссии в космосе девушка оказывается поражена таинственной космической силой, которая превращает её в одного из самых могущественных мутантов. В борьбе с этой всё более изменчивой мощью и со своими собственными демонами Джин выходит из-под контроля: раскалывает семью Людей Икс и угрожает уничтожить всю нашу планету.

    Возраст: 16+ (зрителям, достигшим 16 лет)
    Рейтинг MPAA: PG-13 (детям до 13 лет просмотр нежелателен)
    Релиз от: HANNIBAL (HEVC-CLUB)
    Продолжительность: 01: 53: 56
    Качество видео: BDRip
    Перевод: Дублированный (Лицензия)
    Субтитры: Русские (форсированные, полные), английские (форсированные, полные)
    Видео: HEVC/H.265, 1920x804, ~8690 Kbps
    Аудио 1: AC3, 6 ch, 448 Kbps - Русский, дублированный
    Аудио 2: AC3, 6 ch, 448 Kbps - Английский
    Общее
    Уникальный идентификатор : 324470002777956457200876836456625657711 (0xF41AA641BC589D137C77E963A908D76F)
    Полное имя : R: Dark Phoenix (2019) BDRip-HEVC 1080p 10bit.mkv
    Формат : Matroska
    Версия формата : Version 4/Version 2
    Размер файла : 7, 63 Гбайт
    Продолжительность : 1 ч. 53 м.
    Общий поток : 9588 Кбит/сек
    Название фильма : Люди Икс: Тёмный Феникс
    Описание : Спасательная операция заканчивается для Джин Грей столкновением с космической силой, которая превращает ее в одного из самых могущественных мутантов — Темного Феникса. Джин пытается обуздать новые суперспособности и своих внутренних демонов, однако, все это выходит из-под контроля. Разрушительная опасность невиданной силы в лице близкого друга приводит к расколу в семье Людей Икс.
    Дата кодирования : UTC 2019-09-04 22: 58: 20
    Программа кодирования : mkvmerge v35.0.0 (\'All The Love In The World\') 64-bit
    Библиотека кодирования : libebml v1.3.9 + libmatroska v1.5.2/Lavf57.71.100
    Attachments : poster.jpg
    DATE : 2019-06-05
    ENCODING_INFO : MPEGTS MKV/H264 X265 CRF 17.0 Medium
    GENRE : Боевики и приключения
    HD_VIDEO : 1
    ITUNEXTC : ru-movie|16+|375|
    Язык : und
    MEDIA_TYPE : 9
    SYNOPSIS : Спасательная операция заканчивается для Джин Грей столкновением с космической силой, которая превращает ее в одного из самых могущественных мутантов — Темного Феникса. Джин пытается обуздать новые суперспособности и своих внутренних демонов, однако, все это выходит из-под контроля. Разрушительная опасность невиданной силы в лице близкого друга приводит к расколу в семье Людей Икс.
    Видео
    Идентификатор : 1
    Формат : HEVC
    Формат/Информация : High Efficiency Video Coding
    Профиль формата : Main10@L4.1@High
    Идентификатор кодека : V_MPEGH/ISO/HEVC
    Продолжительность : 1 ч. 53 м.
    Битрейт : 8690 Кбит/сек
    Ширина : 1920 пикселей
    Высота : 804 пикселя
    Соотношение сторон : 2, 40: 1
    Режим частоты кадров : Постоянный
    Частота кадров : 23, 976 (24000/1001) кадра/сек
    Цветовое пространство : YUV
    Субдискретизация насыщенности : 4: 2: 0
    Битовая глубина : 10 бит
    Бит/(Пиксели*Кадры) : 0.235
    Размер потока : 6, 92 Гбайт (91%)
    Библиотека кодирования : x265 3.1+7-147fb92c5ed5: Windowsclang 8.0.064 bit 10bit
    Настройки программы : cpuid=1111039/frame-threads=13/wpp/no-pmode/no-pme/no-psnr/no-ssim/log-level=3/input-csp=1/input-res=1920x804/interlace=0/total-frames=0/level-idc=41/high-tier=1/uhd-bd=0/ref=5/allow-non-conformance/no-repeat-t_heads/annexb/no-aud/no-hrd/info/hash=0/no-temporal-layers/open-gop/min-keyint=23/keyint=240/gop-lookahead=0/bframes=8/b-adapt=2/b-pyramid/bframe-bias=0/rc-lookahead=60/lookahead-slices=4/scenecut=40/radl=0/no-splice/no-intra-refresh/ctu=64/min-cu-size=8/rect/amp/max-tu-size=32/tu-inter-depth=4/tu-intra-depth=4/limit-tu=0/rdoq-level=2/dynamic-rd=0.00/no-ssim-rd/signhide/no-tskip/nr-intra=0/nr-inter=0/no-constrained-intra/no-strong-intra-smoothing/max-merge=5/limit-refs=2/limit-modes/me=3/subme=7/merange=57/temporal-mvp/no-hme/weightp/weightb/no-analyze-src-pics/deblock=-3: -3/no-sao/no-sao-non-deblock/rd=6/early-skip/no-rskip/no-fast-intra/no-tskip-fast/no-cu-lossless/b-intra/no-splitrd-skip/rdpenalty=0/psy-rd=2.00/psy-rdoq=1.00/no-rd-refine/no-lossless/cbqpoffs=0/crqpoffs=0/rc=crf/crf=17.0/qcomp=0.60/qpstep=4/stats-write=0/stats-read=0/vbv-maxrate=50000/vbv-bufsize=50000/vbv-init=0.9/crf-max=30.0/crf-min=0.0/ipratio=1.40/pbratio=1.30/aq-mode=2/aq-strength=1.00/no-cutree/zone-count=0/no-strict-cbr/qg-size=32/no-rc-grain/qpmax=69/qpmin=0/no-const-vbv/sar=1/overscan=0/videoformat=5/range=0/colorprim=1/transfer=1/colormatrix=1/chromaloc=0/display-window=0cll=0, 0/min-luma=0/max-luma=1023/log2-max-poc-lsb=8/vui-timing-info/vui-hrd-info/slices=1/no-opt-qp-pps/no-opt-ref-list-length-pps/no-multi-pass-opt-rps/scenecut-bias=0.05/no-opt-cu-delta-qp/no-aq-motion/no-hdr/no-hdr-opt/no-dhdr10-opt/no-idr-recovery-sei/analysis-reuse-level=5/scale-factor=0/refine-intra=0/refine-inter=0/refine-mv=0/refine-ctu-distortion=0/no-limit-sao/ctu-info=0/no-lowpass-dct/refine-analysis-type=-184094232/copy-pic=1/max-ausize-factor=1.0/no-dynamic-refine/no-single-sei/no-hevc-aq/no-svt/no-field/qp-adaptation-range=1.00
    Default : Да
    Forced : Нет
    Цветовой диапазон : Limited
    Основные цвета : BT.709
    Характеристики трансфера : BT.709
    Коэффициенты матрицы : BT.709
    Аудио #1
    Идентификатор : 2
    Формат : AC-3
    Формат/Информация : Audio Coding 3
    Идентификатор кодека : A_AC3
    Продолжительность : 1 ч. 53 м.
    Вид битрейта : Постоянный
    Битрейт : 448 Кбит/сек
    Каналы : 6 каналов
    Расположение каналов : Front: L C R, Side: L R, LFE
    Частота : 48, 0 КГц
    Частота кадров : 31, 250 кадров/сек (1536 SPF)
    Битовая глубина : 16 бит
    Метод сжатия : С потерями
    Размер потока : 365 Мбайт (5%)
    Заголовок : DUB
    Язык : Russian
    ServiceKind/String : Complete Main
    Default : Да
    Forced : Нет
    Аудио #2
    Идентификатор : 3
    Формат : AC-3
    Формат/Информация : Audio Coding 3
    Идентификатор кодека : A_AC3
    Продолжительность : 1 ч. 53 м.
    Вид битрейта : Постоянный
    Битрейт : 448 Кбит/сек
    Каналы : 6 каналов
    Расположение каналов : Front: L C R, Side: L R, LFE
    Частота : 48, 0 КГц
    Частота кадров : 31, 250 кадров/сек (1536 SPF)
    Битовая глубина : 16 бит
    Метод сжатия : С потерями
    Размер потока : 365 Мбайт (5%)
    Язык : English
    ServiceKind/String : Complete Main
    Default : Нет
    Forced : Нет
    Текст #1
    Идентификатор : 4
    Формат : UTF-8
    Идентификатор кодека : S_TEXT/UTF8
    Идентификатор кодека/Информация : UTF-8 Plain Text
    Продолжительность : 1 ч. 52 м.
    Битрейт : 1 бит/сек
    ElementCount : 18
    Размер потока : 1, 03 Кбайт (0%)
    Заголовок : Forced
    Язык : Russian
    Default : Да
    Forced : Нет
    Текст #2
    Идентификатор : 5
    Формат : UTF-8
    Идентификатор кодека : S_TEXT/UTF8
    Идентификатор кодека/Информация : UTF-8 Plain Text
    Продолжительность : 1 ч. 52 м.
    Битрейт : 55 бит/сек
    ElementCount : 1094
    Размер потока : 46, 1 Кбайт (0%)
    Заголовок : Full
    Язык : Russian
    Default : Нет
    Forced : Нет
    Текст #3
    Идентификатор : 6
    Формат : UTF-8
    Идентификатор кодека : S_TEXT/UTF8
    Идентификатор кодека/Информация : UTF-8 Plain Text
    Продолжительность : 31 м. 20 с.
    Битрейт : 0 бит/сек
    ElementCount : 4
    Размер потока : 169 байт (0%)
    Заголовок : Forced
    Язык : English
    Default : Нет
    Forced : Нет
    Текст #4
    Идентификатор : 7
    Формат : UTF-8
    Идентификатор кодека : S_TEXT/UTF8
    Идентификатор кодека/Информация : UTF-8 Plain Text
    Продолжительность : 1 ч. 43 м.
    Битрейт : 40 бит/сек
    ElementCount : 1103
    Размер потока : 30, 9 Кбайт (0%)
    Заголовок : Full
    Язык : English
    Default : Нет
    Forced : Нет
    Меню
    00: 00: 00.000 : : Глава 1
    00: 10: 10.484 : : Глава 2
    00: 28: 07.310 : : Глава 3
    00: 41: 31.155 : : Глава 4
    00: 54: 42.946 : : Глава 5
    01: 09: 12.356 : : Глава 6
    01: 26: 42.155 : : Глава 7
    01: 39: 53.946 : : Глава 8
    01: 52: 25.613 : : Глава 9


    Онлайн видео Люди Икс: Тёмный Феникс



    Люди Икс: Тёмный Феникс / Dark Phoenix (2019) BDRip [H.265 / 1080p] [10-bit] торрент скачать бесплатно
    Рейтинг →
     (голосов: 1, оценка 3/5, голосовать можно 1 раз )

    Другие торренты по теме:

  • Люди Икс: Тёмный Феникс / Dark Phoenix (2019) TS [H.264 / 720p-LQ] [AD]
  • Hans Zimmer - X-Men: Dark Phoenix / Люди Икс: Тёмный Феникс (Original Motion Picture Soundtrack) (2019) [MP3|320 Kbps] <Soundtrack, Score>
  • Hans Zimmer - X-Men: Dark Phoenix / Люди Икс: Тёмный Феникс (Original Motion Picture Soundtrack) (2019) [FLAC|Lossless|WEB-DL|tracks] <Soundtrack, Score>
  • Люди Икс: Тёмный Феникс / Dark Phoenix (2019) BDRip [H.264 / 1080p] [EN / EN Sub] [PR]
  • Люди Икс: Тёмный Феникс / Dark Phoenix (2019) BDRip [H.264 / 720p] [AD] [PR]
  • Люди Икс: Тёмный Феникс / Dark Phoenix (2019) BDRip [H.264]
  • Люди Икс: Тёмный Феникс / Dark Phoenix (2019) BDRemux [H.264 / 1080p]
  • Люди Икс: Тёмный Феникс / Dark Phoenix (2019) Blu-ray [H.264 / 1080p] [EUR]


    • Комментарии (0):

      Информация

      Информация

        Посетители, находящиеся в группе Гости, не могут оставлять комментарии в данной новости.

        ↓ Меню




        ↓ Опрос

        Вы добавили сайт в закладки?
        Да
        Нет


        Популярное