.
Авторизация | Регистрация
bitok.xyz
Торрент скачать бесплатно Фильмы торрент скачать В ожидании моря / Waiting for the Sea (2013) WEBRip торрент скачать бесплатно


    В ожидании моря / Waiting for the Sea (2013) WEBRip торрент скачать бесплатно

    Дата: 30-01-2020, 05:00 | .torrent скачали: 2

    В ожидании моря / Waiting for the Sea (2013) WEBRipПроизводство: Россия, Германия, Франция, Бельгия, Казахстан, Украина/Кинокомпания Ввысь, Казахфильм, Палас Фильм ГмбХ, Силкроуд Продакшн Эс.А.Р.Л, Ентер Чьен Ет Луп ЭсСиРЛ
    Жанр: Драма
    Режиссер: Бахтиер Худойназаров

    Актеры
    Динмухаммед Ахимов, Егор Бероев, Детлев Бук, Раджаб Гусейнов, Даулет Кекельбаев, Павел Прилучный, Арман Асенов, Анастасия Микульчина, Саёра Сафари

    Описание

    Фильм об ушедшем море, о рыбаках, которые остались без воды. Марат, капитан рыболовецкого судна, попадает в тюрьму на десять лет. А когда он возвращается домой — аула уже нет, нет и моря, только голая степь.

    Возраст: 0+ (для любой зрительской аудитории)
    Релиз от: Алехаndr
    Продолжительность: 01: 44: 45
    Качество видео: WEBRip
    Субтитры: Отсутствуют
    Видео: Xvid, 720x388 (1.85: 1), ~1800 Kbps
    Аудио: AC3, 2 ch, 192 Kbps
    Общее
    Полное имя : D: В ожидании моря (2013).by.Алехаndr.avi
    Формат : AVI
    Формат/Информация : Audio Video Interleave
    Профиль формата : OpenDML
    Размер файла : 1, 46 Гбайт
    Продолжительность : 1 ч. 44 м.
    Общий поток : 2002 Кбит/сек
    Название фильма : V ozhidanii morya.2013.by.Alexandr
    Программа кодирования : Lavf58.29.100
    Видео
    Идентификатор : 0
    Формат : MPEG-4 Visual
    Профиль формата : Advanced Simple@L5
    Настройки формата : BVOP2
    Параметр BVOP формата : 2
    Параметр QPel формата : Нет
    Параметр GMC формата : Без точки перехода
    Параметр матрицы формата : Default (MPEG)
    Идентификатор кодека : XVID
    Идентификатор кодека/Подсказка : XviD
    Продолжительность : 1 ч. 44 м.
    Битрейт : 1797 Кбит/сек
    Ширина : 720 пикселей
    Высота : 388 пикселей
    Соотношение сторон : 1, 85: 1
    Частота кадров : 25, 000 кадров/сек
    Цветовое пространство : YUV
    Субдискретизация насыщенности : 4: 2: 0
    Битовая глубина : 8 бит
    Тип развёртки : Прогрессивная
    Метод сжатия : С потерями
    Бит/(Пиксели*Кадры) : 0.257
    Размер потока : 1, 32 Гбайт (90%)
    Библиотека кодирования : XviD 67
    Аудио
    Идентификатор : 1
    Формат : AC-3
    Формат/Информация : Audio Coding 3
    Коммерческое название : Dolby Digital
    Идентификатор кодека : 2000
    Продолжительность : 1 ч. 44 м.
    Вид битрейта : Постоянный
    Битрейт : 192 Кбит/сек
    Каналы : 2 канала
    ChannelLayout : L R
    Частота : 48, 0 КГц
    Частота кадров : 31, 250 кадров/сек (1536 SPF)
    Битовая глубина : 16 бит
    Метод сжатия : С потерями
    Размер потока : 144 Мбайт (10%)
    Выравнивание : Соединение по промежуткам
    Продолжительность промежутка : 32 мс. (0, 80 видеокадр)
    ServiceKind/String : Complete Main

    Скриншоты для ознакомления



    Все одноименные релизы в Клубе
    Время раздачи: 24/7 (круглосуточно) (до появления первых 3-5 скачавших)

    Онлайн видео В ожидании моря



    В ожидании моря / Waiting for the Sea (2013) WEBRip торрент скачать бесплатно
    Рейтинг →
     (голосов: 1, оценка 4/5, голосовать можно 1 раз )

    Другие торренты по теме:

  • Чингиз Абдуллаев | В ожидании апокалипсиса (2015) [MP3]
  • BBC. В краю муссонов: В ожидании дождя / Waiting for the Rains (2014) BDRip [H.264 / 720p] скачать через торрент бесплатно
  • Право голоса. Греция в ожидании расплаты (29.06.2015) SATRip скачать через торрент бесплатно
  • В ожидании волн и частиц (2015) DVDRip [H.264] скачать через торрент бесплатно
  • В ожидании настоящей любви / True Love Ways (2014) BDRip скачать через торрент бесплатно
  • Деннис Лихэйн | В ожидании дождя (2015) [MP3]
  • Специальный репортаж. Донбасс. В ожидании мира (2016.02.01) SATRip
  • В ожидании выдоха / Waiting to Exhale (1995) HDTV [H.264 / 1080i]


    • Комментарии (0):

      Информация

      Информация

        Посетители, находящиеся в группе Гости, не могут оставлять комментарии в данной новости.

        ↓ Меню




        ↓ Опрос

        Вы добавили сайт в закладки?
        Да
        Нет


        Популярное