.
Авторизация | Регистрация
bitok.xyz
Торрент скачать бесплатно Фильмы торрент скачать Половина желтого солнца / Half of a Yellow Sun (2013) HDRip [VO] торрент скачать бесплатно


    Половина желтого солнца / Half of a Yellow Sun (2013) HDRip [VO] торрент скачать бесплатно

    Дата: 30-01-2020, 05:00 | .torrent скачали: 0

    Половина желтого солнца / Half of a Yellow Sun (2013) HDRip [VO]Производство: Нигерия, Великобритания/Slate Films, Shareman Media, British Film Institute (BFI)
    Жанр: Драма, Мелодрама
    Режиссер: Байи Банделе

    Актеры
    Тэнди Ньютон, Чиветель Эджиофор, Аника Нони Роуз, Джозеф Моул, Джон Бойега, Onyeka Onwenu, Бабу Сизей, Сьюзан Уокома, Jude Orhorha, Genevieve Nnaji

    Описание

    Красавица Оланна из богатой семьи никогда не отличалась дерзостью, как ее сестра-двойняшка Кайнене, но именно Оланна решилась оставить полную комфорта жизнь ради любви. Переезжая в маленький городок, где жил и работал ее будущий муж, профессор местного университета, она вряд ли понимала, что бесповоротно меняет свою судьбу. Деревенский мальчик Угву, поступивший в услужение в профессорский дом, тоже не догадывался, что отныне его жизнь изменится необратимо и непредсказуемо.
    Застенчивый молодой англичанин Ричард, приехавший в Нигерию, чтобы написать книгу, вовсе не собирался оставаться здесь навсегда. А непокорная и избалованная Кайнене вряд ли думала, что взвалит на свои хрупкие плечи ответственность за жизнь огромного числа людей. Но война, обрушившаяся на страну, не только корежила судьбы людей, но и меняла и их самих, вытаскивая наружу то, что в обычной жизни скрывается за лоском цивилизованности. Оланне, Угву, Ричарду и всем остальным героям романа предстоит пройти сквозь немыслимые ужасы войны, не раз лицом к лицу столкнуться со смертью и вновь обрести себя после страшных испытаний.
    Фильм снят по одноимённому роману нигерийской писательницы Чимаманды Нгози Адичи. Автор книги родилась в небольшом городе Нсукке, в котором и происходят основные события.

    Рейтинг MPAA: R (лицам до 17 лет обязательно присутствие взрослого)
    Продолжительность: 01: 51: 27
    Качество видео: HDRip
    Перевод: Одноголосый любительский (Barin101)
    Субтитры: Английские (отдельным файлом)
    Видео: Xvid, 720x304, ~1546 Kbps
    Аудио #1: AC3, 2 ch, 192 Kbps - Русский
    Аудио #2: AC3, 6 ch, 448 Kbps - Английский
    General
    Complete name : /media/win/TORRENT/UPLOAD_TORRENTS/Половина жёлтого солнца -2013- Half of a Yellow Sun HDRip ЛО/Half.of.a.Yellow.Sun.2013.LIMITED.BRRiP.XVID.AC3-Barin101.avi
    Format : AVI
    Format/Info : Audio Video Interleave
    File size : 1.71 GiB
    Duration : 1 h 51 min
    Overall bit rate : 2 201 kb/s
    Writing application : VirtualDubMod 1.5.10.2 (build 2540/release)
    Writing library : VirtualDubMod build 2540/release
    Video
    ID : 0
    Format : MPEG-4 Visual
    Format profile : Advanced Simple@L5
    Format settings : BVOP2
    Format settings, BVOP : 2
    Format settings, QPel : No
    Format settings, GMC : No warppoints
    Format settings, Matrix : Default (H.263)
    Muxing mode : Packed bitstream
    Codec ID : XVID
    Codec ID/Hint : XviD
    Duration : 1 h 51 min
    Bit rate : 1 547 kb/s
    Width : 720 pixels
    Height : 304 pixels
    Display aspect ratio : 2.35: 1
    Frame rate : 24.000 FPS
    Color space : YUV
    Chroma subsampling : 4: 2: 0
    Bit depth : 8 bits
    Scan type : Progressive
    Compression mode : Lossy
    Bits/(Pixel*Frame) : 0.294
    Stream size : 1.20 GiB (70%)
    Writing library : XviD 1.2.1 (UTC 2008-12-04)
    Audio #1
    ID : 1
    Format : AC-3
    Format/Info : Audio Coding 3
    Commercial name : Dolby Digital
    Codec ID : 2000
    Duration : 1 h 51 min
    Bit rate mode : Constant
    Bit rate : 192 kb/s
    Channel(s) : 2 channels
    Channel layout : L R
    Sampling rate : 48.0 kHz
    Frame rate : 31.250 FPS (1536 SPF)
    Compression mode : Lossy
    Stream size : 153 MiB (9%)
    Alignment : Split across interleaves
    Interleave, duration : 42 ms (1.00 video frame)
    Interleave, preload duration : 500 ms
    Service kind : Complete Main
    Audio #2
    ID : 2
    Format : AC-3
    Format/Info : Audio Coding 3
    Commercial name : Dolby Digital
    Codec ID : 2000
    Duration : 1 h 51 min
    Bit rate mode : Constant
    Bit rate : 448 kb/s
    Channel(s) : 6 channels
    Channel layout : L R C LFE Ls Rs
    Sampling rate : 48.0 kHz
    Frame rate : 31.250 FPS (1536 SPF)
    Compression mode : Lossy
    Stream size : 357 MiB (20%)
    Alignment : Split across interleaves
    Interleave, duration : 42 ms (1.00 video frame)
    Interleave, preload duration : 500 ms
    Service kind : Complete Main


    Онлайн видео Половина желтого солнца



    Половина желтого солнца / Half of a Yellow Sun (2013) HDRip [VO] торрент скачать бесплатно
    Рейтинг →
     (голосов: 1, оценка 4/5, голосовать можно 1 раз )

    Другие торренты по теме:

  • Гарем. Женская половина (2006) IPTVRip скачать через торрент бесплатно
  • О. П. Артюшевский | Совместная антикрепостническая борьба трудящихся масс России, Украины и Белоруссии. Вторая половина XVI - 60-е годы XVII ст. (1987) [DJVU] скачать через торрент бесплатно
  • И. С. Вдовин (отв. ред.) | Христианство и ламаизм у коренного населения Сибири [вторая половина XIX - начало ХХ в.] (1979) [DJVU]
  • Сергей Скачков - Половина пути (2014) [FLAC|Lossless|image + .cue] <Rock>
  • Воскресенье, половина седьмого (1988) DVDRip (серии 1-4 из 4)
  • Стивен Кинг | Темная половина (2017) [FB2, EPUB]
  • Ева Никольская, Кристина Зимняя | Моя темная «половина» (2016) [FB2, EPUB]
  • Татьяна Веденская | Вторая половина Королевы (2017) [FB2]


    • Комментарии (0):

      Информация

      Информация

        Посетители, находящиеся в группе Гости, не могут оставлять комментарии в данной новости.

        ↓ Меню




        ↓ Опрос

        Вы добавили сайт в закладки?
        Да
        Нет


        Популярное