.
Авторизация | Регистрация
bitok.xyz
Торрент скачать бесплатно Фильмы торрент скачать Груз / Teret / The Load (2018) WEB-DLRip [MVO] торрент скачать бесплатно


    Груз / Teret / The Load (2018) WEB-DLRip [MVO] торрент скачать бесплатно

    Дата: 30-01-2020, 05:00 | .torrent скачали: 1

    Груз / Teret / The Load (2018) WEB-DLRip [MVO]Производство: Сербия, Франция, Хорватия, Иран, Катар/Cinémadefacto, Dart Film Video, Kinorama
    Жанр: драма, история
    Режиссер: Огнен Главонич

    Актеры
    Леон Лючев, Павле Чемерикич, Тамара Крцунович, Ivan Lucev, Игор Бенчина, Kosta Bekric, Новак Билбия, Tadija Calukovic, Бранислав Кирич, Радойе Чупич

    Описание

    1999 год, начало бомбардировок Сербии силами НАТО. Отец семейства вынужден вернуться к профессии дальнобойщика и отправиться в рейс, чтобы перевезти секретный груз из Косово.

    Дата мировой премьеры: 12 мая 2018
    Продолжительность: 01: 37: 39
    Качество видео: WEB-DLRip
    Перевод: Многоголосый профессиональный (Культура)
    Субтитры: Отсутствуют
    Видео: Xvid, 704x384, ~1674 Kbps
    Аудио 1: AC3, 2 ch, 192 Kbps - Русский (MVO)
    Аудио 2: AC3, 2 ch, 192 Kbps - Сербский
    General
    Complete name : H: ФильмыTeret.2018.WEBDLRip.avi
    Format : AVI
    Format/Info : Audio Video Interleave
    File size : 1.41 GiB
    Duration : 1 h 37 min
    Overall bit rate : 2 072 kb/s
    Movie name : Teret_2018.WEBRip
    Writing application : VirtualDubModRus 1.5.10.2 (build 2542/release)
    Writing library : VirtualDubMod build 2542/release
    Video
    ID : 0
    Format : MPEG-4 Visual
    Format profile : Advanced Simple@L5
    Format settings : BVOP2/Custom Matrix
    Format settings, BVOP : 2
    Format settings, QPel : No
    Format settings, GMC : No warppoints
    Format settings, Matrix : Custom
    Codec ID : XVID
    Codec ID/Hint : XviD
    Duration : 1 h 37 min
    Bit rate : 1 674 kb/s
    Width : 704 pixels
    Height : 384 pixels
    Display aspect ratio : 1.85: 1
    Frame rate : 24.000 FPS
    Color space : YUV
    Chroma subsampling : 4: 2: 0
    Bit depth : 8 bits
    Scan type : Progressive
    Compression mode : Lossy
    Bits/(Pixel*Frame) : 0.258
    Stream size : 1.14 GiB (81%)
    Writing library : XviD 65
    Audio #1
    ID : 1
    Format : AC-3
    Format/Info : Audio Coding 3
    Commercial name : Dolby Digital
    Codec ID : 2000
    Duration : 1 h 37 min
    Bit rate mode : Constant
    Bit rate : 192 kb/s
    Channel(s) : 2 channels
    Channel layout : L R
    Sampling rate : 48.0 kHz
    Frame rate : 31.250 FPS (1536 SPF)
    Compression mode : Lossy
    Stream size : 134 MiB (9%)
    Alignment : Split across interleaves
    Interleave, duration : 42 ms (1.00 video frame)
    Interleave, preload duratio : 500 ms
    Service kind : Complete Main
    Audio #2
    ID : 2
    Format : AC-3
    Format/Info : Audio Coding 3
    Commercial name : Dolby Digital
    Codec ID : 2000
    Duration : 1 h 37 min
    Bit rate mode : Constant
    Bit rate : 192 kb/s
    Channel(s) : 2 channels
    Channel layout : L R
    Sampling rate : 48.0 kHz
    Frame rate : 31.250 FPS (1536 SPF)
    Compression mode : Lossy
    Stream size : 134 MiB (9%)
    Alignment : Split across interleaves
    Interleave, duration : 42 ms (1.00 video frame)
    Interleave, preload duratio : 500 ms
    Service kind : Complete Main

    Скриншоты для ознакомления



    Все одноименные релизы в Клубе
    Время раздачи: c 7: 00 до 23: 00 МСК (до появления первых 3-5 скачавших)

    Онлайн видео Груз



    Груз / Teret / The Load (2018) WEB-DLRip [MVO] торрент скачать бесплатно
    Рейтинг →
     (голосов: 1, оценка 4/5, голосовать можно 1 раз )

    Другие торренты по теме:

  • Доставить по назначению (Пакет, Груз) / The Package (1989) BDRip [1080p]
  • Каспийский Груз - Белый (2015) [MP3|192-320 кб / с]<Rap, Hip-hop> скачать через торрент бесплатно
  • Каспийский Груз - 4 Альбома и 6 EP [MP3|320 кб / с] <Hip-Hop>
  • Анатолий Половинкин | Опасный груз или А-44 (2016) [MP3]
  • Ценный груз / Precious Cargo (2016) WEB-DL [H.264 / 720p-LQ] [EN / EN Sub]
  • Ценный груз / Precious Cargo (2016) WEB-DL [H.264 / 720p-LQ]
  • Ценный груз / Precious Cargo (2016) WEB-DLRip
  • Ценный груз / Precious Cargo (2016)


    • Комментарии (0):

      Информация

      Информация

        Посетители, находящиеся в группе Гости, не могут оставлять комментарии в данной новости.

        ↓ Меню




        ↓ Опрос

        Вы добавили сайт в закладки?
        Да
        Нет


        Популярное