.
Авторизация | Регистрация
bitok.xyz
Торрент скачать бесплатно Фильмы торрент скачать Кто убил старину Робина / Mu ji zhe / Who Killed Cock Robin (2017) BDRip [DVO] торрент скачать бесплатно


    Кто убил старину Робина / Mu ji zhe / Who Killed Cock Robin (2017) BDRip [DVO] торрент скачать бесплатно

    Дата: 30-01-2020, 05:00 | .torrent скачали: 1

    Кто убил старину Робина / Mu ji zhe / Who Killed Cock Robin (2017) BDRip [DVO]Производство: Тайвань, Good Day Films Company, Rise Pictures, Vie Vision Pictures
    Жанр: Триллер, криминал, детектив
    Режиссер: Чэн Вэйхао
    Продюсер: Tingjun Chen, Чэнь Юйшань, Ruide He

    Актеры
    Кэш Чуан, Тиффани Сюй, Элис Ко, Кристофер Ли, Мэйсон Ли, Ян Чэнь, Чжи-Вэй Чэн, Чи Вэй Тэнг, Марио Пу

    Описание

    9 лет назад начинающий репортёр Чи стал единственным свидетелем аварии на пустынной дороге, виновник которой скрылся с места происшествия. А сейчас он сам попадает в аварию на новой машине и выясняет, что его машина не совсем новая. Оказывается, это тот самый автомобиль, в котором 9 лет назад погиб человек. Чи решает копнуть это дело и находит много странностей и совпадений.

    Релиз от: Rip by vitolinform
    Продолжительность: 01: 57: 10
    Качество видео: BDRip
    Перевод: Двуголосый любительский (den904 DeadSno // Перевод: DeadSno (Ненормативная лексика ))
    Субтитры: Английские - отдельными файлами
    Видео: Xvid, 720x304, ~1588 kbps
    Аудио: AC3, 2 ch, 192 Кbps | Русский (DVO den904 DeadSno)
    Аудио: AC3, 6 ch, 448 Кbps | Китайский - отдельным файлом
    Kto.ubil.starinu.Robina.2017.HDRipKto.ubil.starinu.Robina.2017.BDRip.avi
    Формат : AVI
    Формат/Информация : Audio Video Interleave
    Размер файла : 1, 46 Гбайт
    Продолжительность : 1 ч. 57 м.
    Общий поток : 1789 Кбит/сек
    Название фильма : Кто убил старину Робина/Mu ji zhe/Who Killed Cock Robin? (2017) BDRip
    Режиссёр : Чэн Вэйхао/Cheng Weihao
    Жанр : Триллер, криминал, детектив
    Программа кодирования : VirtualDubMod 1.5.10.2 (build 2542/release)
    Формат оригинала/Имя : Художественный фильм
    Авторское право : Тайвань/Taiwan, Good Day Films Company, Rise Pictures, Vie Vision Pictures
    Примечание : Rip by vitolinform
    Видео
    Идентификатор : 0
    Формат : MPEG-4 Visual
    Профиль формата : Advanced Simple@L5
    Настройки формата : BVOP2
    Параметр BVOP формата : 2
    Параметр QPel формата : Нет
    Параметр GMC формата : Без точки перехода
    Параметр матрицы формата : Default (MPEG)
    Идентификатор кодека : XVID
    Идентификатор кодека/Подсказка : XviD
    Продолжительность : 1 ч. 57 м.
    Битрейт : 1588 Кбит/сек
    Ширина : 720 пикселей
    Высота : 304 пикселя
    Соотношение сторон : 2, 35: 1
    Частота кадров : 24, 000 кадра/сек
    Цветовое пространство : YUV
    Субдискретизация насыщенности : 4: 2: 0
    Битовая глубина : 8 бит
    Тип развёртки : Прогрессивная
    Метод сжатия : С потерями
    Бит/(Пиксели*Кадры) : 0.302
    Размер потока : 1, 30 Гбайт (89%)
    Библиотека кодирования : XviD 67
    Аудио
    Идентификатор : 1
    Формат : AC-3
    Формат/Информация : Audio Coding 3
    Коммерческое название : Dolby Digital
    Идентификатор кодека : 2000
    Продолжительность : 1 ч. 57 м.
    Вид битрейта : Постоянный
    Битрейт : 192 Кбит/сек
    Каналы : 2 канала
    ChannelLayout : L R
    Частота : 48, 0 КГц
    Частота кадров : 31, 250 кадров/сек (1536 SPF)
    Битовая глубина : 16 бит
    Метод сжатия : С потерями
    Размер потока : 161 Мбайт (11%)
    Выравнивание : Разделение по промежуткам
    Продолжительность промежутка : 42 мс. (1, 00 видеокадр)
    Время предзагрузки промежутка : 500 мс.
    Заголовок : Russian (DVO den904, DeadSno)
    ServiceKind/String : Complete Main
    =====================================================
    Kto.ubil.starinu.Robina.2017.HDRipKto.ubil.starinu.Robina.2017.BDRip_chin.ac3
    Формат : AC-3
    Формат/Информация : Audio Coding 3
    Коммерческое название : Dolby Digital
    Размер файла : 375 Мбайт
    Продолжительность : 1 ч. 57 м.
    Режим общего битрейта : Постоянный
    Общий поток : 448 Кбит/сек
    Аудио
    Формат : AC-3
    Формат/Информация : Audio Coding 3
    Коммерческое название : Dolby Digital
    Продолжительность : 1 ч. 57 м.
    Вид битрейта : Постоянный
    Битрейт : 448 Кбит/сек
    Каналы : 6 каналов
    ChannelLayout : L R C LFE Ls Rs
    Частота : 48, 0 КГц
    Частота кадров : 31, 250 кадров/сек (1536 SPF)
    Битовая глубина : 16 бит
    Метод сжатия : С потерями
    Размер потока : 375 Мбайт (100%)
    ServiceKind/String : Complete Main

    Скриншоты для ознакомления




    Все одноименные релизы в Клубе
    Время раздачи: 24/7 (мультитрекерная раздача) (до появления первых 3-5 скачавших)

    Онлайн видео Кто убил старину Робина



    Кто убил старину Робина / Mu ji zhe / Who Killed Cock Robin (2017) BDRip [DVO] торрент скачать бесплатно
    Рейтинг →
     (голосов: 1, оценка 4/5, голосовать можно 1 раз )

    Другие торренты по теме:

  • Кто убил старину Робина / Who Killed Cock Robin / Mu ji zhe (2017) HDRip [MVO] [AD]
  • Кто убил старину Робина / Who Killed Cock Robin / Mu ji zhe (2017) BDRemux [H.264 / 1080p] [DVO]


    • Комментарии (0):

      Информация

      Информация

        Посетители, находящиеся в группе Гости, не могут оставлять комментарии в данной новости.

        ↓ Меню




        ↓ Опрос

        Вы добавили сайт в закладки?
        Да
        Нет


        Популярное