.
Авторизация | Регистрация
bitok.xyz
Торрент скачать бесплатно Фильмы торрент скачать Дом 2: Проклятая обитель / House II: The Second Story (1987) BDRip [H.264] торрент скачать бесплатно


    Дом 2: Проклятая обитель / House II: The Second Story (1987) BDRip [H.264] торрент скачать бесплатно

    Дата: 30-01-2020, 05:00 | .torrent скачали: 1

    Дом 2: Проклятая обитель / House II: The Second Story (1987) BDRip [H.264]Производство: США/New World Pictures, Sean S. Cunningham Films
    Жанр: Ужасы, Фэнтези, Комедия
    Режиссер: Этан Уайли
    Продюсер: Шон С. Каннингэм, Эндрю З. Дэвис

    Актеры
    Ари Гросс, Джонатан Старк, Ройал Дэно, Билл Маар, Джон Ратценбергер, Лар Парк-Линкольн, Эми Ясбек, Грегори Уэлкотт, Дуайр Браун, Ленора Мэй

    Описание

    Молодой человек наследует старый дом и приглашает переехать туда свою подругу. С ними происходит ряд мистических случаев, что заставляет парня разрыть могилу своего давно умершего деда, который оказывается жив. И так все еще только начинается…

    Возраст: 16+ (зрителям, достигшим 16 лет)
    Рейтинг MPAA: PG-13 (детям до 13 лет просмотр нежелателен)
    Релиз от: Охрана (NNMCLUB)
    Продолжительность: 01: 27: 46
    Качество видео: BDRip
    Перевод: Многоголосый профессиональный, двуголосый профессиональный, авторский
    Субтитры: Русские, английские
    Видео: AVC/H.264, 1024x552, ~2875 Kbps
    Аудио 1: AC3, 6 ch, 448 Kbps, 48.0 kHz – Русский MVO, CP-Digital
    Аудио 2: AC3, 2 ch, 192 Kbps, 48.0 kHz – Русский DVO, Ren-TV
    Аудио 3: AC3, 2 ch, 192 Kbps, 48.0 kHz – Русский AVO, А. Гаврилов
    Аудио 4: AC3, 2 ch, 192 Kbps, 48.0 kHz – Русский AVO, С. Визгунов
    Аудио 5: AC3, 2 ch, 192 Kbps, 48.0 kHz – Английский
    Общее
    Уникальный идентификатор : 205630626189266716825987857999572464632 (0x9AB3049EAB544C38A2162F1C0BCF73F8)
    Полное имя : B: DownloadsДом 2. Проклятая обитель. 1987. NNMCLUB.mkv
    Формат : Matroska
    Версия формата : Version 4/Version 2
    Размер файла : 2, 51 Гбайт
    Продолжительность : 1 ч. 27 м.
    Общий поток : 4093 Кбит/сек
    Дата кодирования : UTC 2020-01-28 22: 07: 24
    Программа кодирования : mkvmerge v7.9.0 (\'Birds\') 64bit
    Библиотека кодирования : libebml v1.3.1 + libmatroska v1.4.2
    Видео
    Идентификатор : 1
    Формат : AVC
    Формат/Информация : Advanced Video Codec
    Профиль формата : High@L4.1
    Настройки формата : CABAC/12 Ref Frames
    Параметр CABAC формата : Да
    Параметр RefFrames формата : 12 кадров
    Идентификатор кодека : V_MPEG4/ISO/AVC
    Продолжительность : 1 ч. 27 м.
    Битрейт : 2875 Кбит/сек
    Ширина : 1024 пикселя
    Высота : 552 пикселя
    Соотношение сторон : 1, 85: 1
    Режим частоты кадров : Постоянный
    Частота кадров : 24, 000 кадра/сек
    Цветовое пространство : YUV
    Субдискретизация насыщенности : 4: 2: 0
    Битовая глубина : 8 бит
    Тип развёртки : Прогрессивная
    Бит/(Пиксели*Кадры) : 0.212
    Размер потока : 1, 76 Гбайт (70%)
    Заголовок : House II: The Second Story
    Библиотека кодирования : x264 core 146 r2538 121396c
    Настройки программы : cabac=1/ref=12/deblock=1: -1: -1/analyse=0x3: 0x113/me=umh/subme=10/psy=1/psy_rd=1.00: 0.10/mixed_ref=1/me_range=32/chroma_me=1/trellis=2/8x8dct=1/cqm=0/deadzone=21, 11/fast_pskip=0/chroma_qp_offset=-3/threads=6/lookahead_threads=1/sliced_threads=0/nr=0/decimate=0/interlaced=0/bluray_compat=0/constrained_intra=0/bframes=7/b_pyramid=2/b_adapt=2/b_bias=0/direct=3/weightb=1/open_gop=0/weightp=2/keyint=250/keyint_min=25/scenecut=40/intra_refresh=0/rc_lookahead=60/rc=2pass/mbtree=1/bitrate=2875/ratetol=1.0/qcomp=0.60/qpmin=0/qpmax=69/qpstep=4/cplxblur=20.0/qblur=0.5/vbv_maxrate=14000/vbv_bufsize=14000/nal_hrd=none/filler=0/ip_ratio=1.40/aq=1: 1.00
    Язык : English
    Default : Да
    Forced : Нет
    Аудио #1
    Идентификатор : 2
    Формат : AC-3
    Формат/Информация : Audio Coding 3
    Идентификатор кодека : A_AC3
    Продолжительность : 1 ч. 27 м.
    Вид битрейта : Постоянный
    Битрейт : 448 Кбит/сек
    Каналы : 6 каналов
    Расположение каналов : Front: L C R, Side: L R, LFE
    Частота : 48, 0 КГц
    Частота кадров : 31, 250 кадров/сек (1536 SPF)
    Битовая глубина : 16 бит
    Метод сжатия : С потерями
    Размер потока : 281 Мбайт (11%)
    Заголовок : Многоголосый профессиональный, CP-Digital
    Язык : Russian
    ServiceKind/String : Complete Main
    Default : Да
    Forced : Нет
    Аудио #2
    Идентификатор : 3
    Формат : AC-3
    Формат/Информация : Audio Coding 3
    Идентификатор кодека : A_AC3
    Продолжительность : 1 ч. 27 м.
    Вид битрейта : Постоянный
    Битрейт : 192 Кбит/сек
    Каналы : 2 канала
    Расположение каналов : Front: L R
    Частота : 48, 0 КГц
    Частота кадров : 31, 250 кадров/сек (1536 SPF)
    Битовая глубина : 16 бит
    Метод сжатия : С потерями
    Размер потока : 121 Мбайт (5%)
    Заголовок : Двуголосый профессиональный, Ren-TV
    Язык : Russian
    ServiceKind/String : Complete Main
    Default : Нет
    Forced : Нет
    Аудио #3
    Идентификатор : 4
    Формат : AC-3
    Формат/Информация : Audio Coding 3
    Идентификатор кодека : A_AC3
    Продолжительность : 1 ч. 27 м.
    Вид битрейта : Постоянный
    Битрейт : 192 Кбит/сек
    Каналы : 2 канала
    Расположение каналов : Front: L R
    Частота : 48, 0 КГц
    Частота кадров : 31, 250 кадров/сек (1536 SPF)
    Битовая глубина : 16 бит
    Метод сжатия : С потерями
    Размер потока : 121 Мбайт (5%)
    Заголовок : Авторский, А. Гаврилов
    Язык : Russian
    ServiceKind/String : Complete Main
    Default : Нет
    Forced : Нет
    Аудио #4
    Идентификатор : 5
    Формат : AC-3
    Формат/Информация : Audio Coding 3
    Идентификатор кодека : A_AC3
    Продолжительность : 1 ч. 27 м.
    Вид битрейта : Постоянный
    Битрейт : 192 Кбит/сек
    Каналы : 2 канала
    Расположение каналов : Front: L R
    Частота : 48, 0 КГц
    Частота кадров : 31, 250 кадров/сек (1536 SPF)
    Битовая глубина : 16 бит
    Метод сжатия : С потерями
    Размер потока : 121 Мбайт (5%)
    Заголовок : Авторский, С. Визгунов
    Язык : Russian
    ServiceKind/String : Complete Main
    Default : Нет
    Forced : Нет
    Аудио #5
    Идентификатор : 6
    Формат : AC-3
    Формат/Информация : Audio Coding 3
    Идентификатор кодека : A_AC3
    Продолжительность : 1 ч. 27 м.
    Вид битрейта : Постоянный
    Битрейт : 192 Кбит/сек
    Каналы : 2 канала
    Расположение каналов : Front: L R
    Частота : 48, 0 КГц
    Частота кадров : 31, 250 кадров/сек (1536 SPF)
    Битовая глубина : 16 бит
    Метод сжатия : С потерями
    Размер потока : 121 Мбайт (5%)
    Заголовок : Английский
    Язык : English
    ServiceKind/String : Complete Main
    Default : Нет
    Forced : Нет
    Текст #1
    Идентификатор : 7
    Формат : UTF-8
    Идентификатор кодека : S_TEXT/UTF8
    Идентификатор кодека/Информация : UTF-8 Plain Text
    Продолжительность : 1 ч. 23 м.
    Битрейт : 58 бит/сек
    ElementCount : 577
    Размер потока : 35, 9 Кбайт (0%)
    Заголовок : Full
    Язык : Russian
    Default : Нет
    Forced : Нет
    Текст #2
    Идентификатор : 8
    Формат : UTF-8
    Идентификатор кодека : S_TEXT/UTF8
    Идентификатор кодека/Информация : UTF-8 Plain Text
    Продолжительность : 1 ч. 23 м.
    Битрейт : 39 бит/сек
    ElementCount : 739
    Размер потока : 24, 0 Кбайт (0%)
    Заголовок : Full
    Язык : English
    Default : Нет
    Forced : Нет

    Скриншоты для ознакомления




    Все одноименные релизы в Клубе
    Время раздачи: с 13: 00 до 01: 00 МСК, выходные круглосуточно (до появления первых 3-5 скачавших)

    Онлайн видео Дом 2: Проклятая обитель



    Дом 2: Проклятая обитель / House II: The Second Story (1987) BDRip [H.264] торрент скачать бесплатно
    Рейтинг →
     (голосов: 1, оценка 3/5, голосовать можно 1 раз )

    Другие торренты по теме:

  • Harry Manfredini - House & House II: The Second Story / Дом & Дом 2: Проклятая обитель (1986, 1987) [MP3|320 кб / с] <Score>
  • Дом 2: Проклятая обитель / House II: The Second Story (1987) BDRip [H.264 / 720p]


    • Комментарии (0):

      Информация

      Информация

        Посетители, находящиеся в группе Гости, не могут оставлять комментарии в данной новости.

        ↓ Меню




        ↓ Опрос

        Вы добавили сайт в закладки?
        Да
        Нет


        Популярное