.
Авторизация | Регистрация
bitok.xyz
Торрент скачать бесплатно Фильмы торрент скачать Леденящие душу приключения Сабрины / Chilling Adventures of Sabrina (2018-2020) WEB-DLRip (сезон 1-3, серии 1-28 из 28) Пифагор торрент скачать бесплатно


    Леденящие душу приключения Сабрины / Chilling Adventures of Sabrina (2018-2020) WEB-DLRip (сезон 1-3, серии 1-28 из 28) Пифагор торрент скачать бесплатно

    Дата: 30-01-2020, 05:00 | .torrent скачали: 1

    Леденящие душу приключения Сабрины / Chilling Adventures of Sabrina (2018-2020) WEB-DLRip (сезон 1-3, серии 1-28 из 28) ПифагорПроизводство: США | Warner Bros. Television
    Жанр: ужасы, фэнтези, триллер, драма, детектив
    Режиссер: Роб Шейденгланц, Мэгги Кили, Ли Толанд Кригер

    Актеры
    Кирнан Шипка, Ричард Койл, Люси Дэвис, Мишель Гомес, Росс Линч, Миранда Отто, Бронсон Пинчот, Райли Уотсон, Кристофер Розамунд, Дженна Берман и др.

    Описание

    Молодая ведьмочка Сабрина в процессе взросления. Она пытается разобраться в себе и найти свой путь. У девушки двойная суть: наполовину колдунья, наполовину обычный человек. Это немного мешает ей понять себя. Перед полукровкой выбор: жить жизнью обычного человека или войти навсегда в мир магии и волшебства. Метания между крайностями характера не способствуют внутренней гармонии взрослеющей девочки. Она поступает на курсы ведьм. В то же время, ей нравится обычная жизнь, которой живут смертные одноклассницы. Пока девушка-маг в раздумьях своего пути, Силы Зла не дремлют. Они приготовили ведьмочке суровые испытания...

    Продолжительность: ~01: 00: 00 серия
    Качество видео: WEB-DLRip
    Перевод: Дублированный (Пифагор)
    Видео: XviD, 704x320, ~1500 kbps
    Аудио 1: MP3, 2 ch, 128 kbps - русский
    Аудио 2: MP3, 2 ch, 128 kbps - английский
    General
    Complete name : D: Chilling Adventures of SabrinaSeason 3Chilling.Adventures.of.Sabrina.s03e07.avi
    Format : AVI
    Format/Info : Audio Video Interleave
    File size : 702 MiB
    Duration : 55 min 33 s
    Overall bit rate : 1 767 kb/s
    Writing application : VirtualDubMod 1.5.10.2 (build 2540/release)
    Writing library : VirtualDubMod build 2540/release
    Video
    ID : 0
    Format : MPEG-4 Visual
    Format profile : Advanced Simple@L5
    Format settings : BVOP1/Custom Matrix
    Format settings, BVOP : 1
    Format settings, QPel : No
    Format settings, GMC : No warppoints
    Format settings, Matrix : Custom
    Codec ID : XVID
    Codec ID/Hint : XviD
    Duration : 55 min 33 s
    Bit rate : 1 497 kb/s
    Width : 704 pixels
    Height : 320 pixels
    Display aspect ratio : 2.2: 1
    Frame rate : 23.976 (24000/1001) FPS
    Color space : YUV
    Chroma subsampling : 4: 2: 0
    Bit depth : 8 bits
    Scan type : Progressive
    Compression mode : Lossy
    Bits/(Pixel*Frame) : 0.277
    Stream size : 595 MiB (85%)
    Writing library : XviD 73
    Audio #1
    ID : 1
    Format : MPEG Audio
    Format version : Version 1
    Format profile : Layer 3
    Format settings : Joint stereo/MS Stereo
    Codec ID : 55
    Codec ID/Hint : MP3
    Duration : 55 min 33 s
    Bit rate mode : Constant
    Bit rate : 128 kb/s
    Channel(s) : 2 channels
    Sampling rate : 48.0 kHz
    Compression mode : Lossy
    Stream size : 50.9 MiB (7%)
    Alignment : Split accross interleaves
    Interleave, duration : 42 ms (1.00 video frame)
    Interleave, preload duratio : 500 ms
    Audio #2
    ID : 2
    Format : MPEG Audio
    Format version : Version 1
    Format profile : Layer 3
    Format settings : Joint stereo/MS Stereo
    Codec ID : 55
    Codec ID/Hint : MP3
    Duration : 55 min 33 s
    Bit rate mode : Constant
    Bit rate : 128 kb/s
    Channel(s) : 2 channels
    Sampling rate : 48.0 kHz
    Compression mode : Lossy
    Stream size : 50.9 MiB (7%)
    Alignment : Split accross interleaves
    Interleave, duration : 42 ms (1.00 video frame)
    Interleave, preload duratio : 500 ms


    Онлайн видео Леденящие душу приключения Сабрины



    Леденящие душу приключения Сабрины / Chilling Adventures of Sabrina (2018-2020) WEB-DLRip (сезон 1-3, серии 1-28 из 28) Пифагор торрент скачать бесплатно
    Рейтинг →
     (голосов: 1, оценка 4/5, голосовать можно 1 раз )

    Другие торренты по теме:

  • Леденящие душу приключения Сабрины / The Chilling Adventures of Sabrina (2018) WEBRip [H.264 / 1080p-LQ] (сезон 1, серии 1-3 из 10) OMSKBIRD (обновляемая) [AD]
  • Леденящие душу приключения Сабрины / Chilling Adventures of Sabrina (2018) WEBRip [H.264 / 720p-LQ] (сезон 1, серии 1-10 из 10) BaibaKo
  • Леденящие душу приключения Сабрины / Chilling Adventures of Sabrina (2018) WEBRip [H.264 / 720p-LQ] (сезон 1, серии 1-10 из 10)
  • Леденящие душу приключения Сабрины / Chilling Adventures of Sabrina (2018) WEB-DL [H.264 / 1080p-LQ] (сезон 1, серии 1-10 из 10) TVShows
  • Леденящие душу приключения Сабрины / The Chilling Adventures of Sabrina (2019) WEBRip [H.264 / 1080p-LQ] (сезон 2, серии 1-2 из 9) OMSKBIRD (обновляемая) [AD]
  • Леденящие душу приключения Сабрины / The Chilling Adventures of Sabrina (2019) WEBRip (сезон 2, серии 1-9 из 9) Пифагор
  • Леденящие душу приключения Сабрины / Chilling Adventures of Sabrina (2020) WEB-DLRip [H.264 / 1080p-LQ] (сезон 3, серии 1-8 из 8) Пифагор


    • Комментарии (0):

      Информация

      Информация

        Посетители, находящиеся в группе Гости, не могут оставлять комментарии в данной новости.

        ↓ Меню




        ↓ Опрос

        Вы добавили сайт в закладки?
        Да
        Нет


        Популярное