.
Авторизация | Регистрация
bitok.xyz
Торрент скачать бесплатно Фильмы торрент скачать Доктор Хэрроу / Harrow (2019) WEB-DLRip (сезон 2, серии 1-10 из 10) Кириллица торрент скачать бесплатно


    Доктор Хэрроу / Harrow (2019) WEB-DLRip (сезон 2, серии 1-10 из 10) Кириллица торрент скачать бесплатно

    Дата: 30-01-2020, 05:00 | .torrent скачали: 0

    Доктор Хэрроу / Harrow (2019) WEB-DLRip (сезон 2, серии 1-10 из 10) КириллицаПроизводство: США, Австралия | Hoodlum Entertainment
    Жанр: драма
    Режиссер: Тони Кравиц, Дэниэл Неттхейм, Питер Сэлмон

    Актеры
    Йоан Гриффит, Элла Ньютон, Анна Лизе Филлипс, Даррен Гилшенан, Дэмиен Гарви, Робин Малкольм, Хантер Пейдж-Лошар, Реми Хай, Мирра Фолкс, Джолин Андерсон и др.

    Описание

    Даниэль Харроу – один из лучших специалистов в своей области, он блестящий медэксперт, раскрывший уже не одно сложнейшее дело. Его стремление к справедливости помогает ему даже в самых сложных делах. Но однажды он сам оказывается в сложной ситуации. Разоблачение темной тайны из прошлого доктора, грозит его будущему и карьере, угрожает его семье. Он должен приложить все силы, использовать все свои навыки, чтобы эту тайну оставить нераскрытой.

    Возраст: 18+ (зрителям, достигшим 18 лет. запрещено для детей)
    Продолжительность: ~00: 51: 00 серия
    Качество видео: WEB-DLRip
    Перевод: Дублированный (Кириллица)
    Видео: Xvid, 720x400 (16: 9), ~1600 kbps
    Аудио 1: AC3, 2 ch, 192 kbps - русский
    Аудио 2: AC3, 2 ch, 192 kbps - английский
    General
    Complete name : D: Harrow_S02_2019_WEB-DLRipHarrow_S02_2019_WEB-DLRip_01.avi
    Format : AVI
    Format/Info : Audio Video Interleave
    File size : 745 MiB
    Duration : 52 min 8 s
    Overall bit rate : 1 998 kb/s
    Writing application : VirtualDubModRus 1.5.10.2 (build 2542/release)
    Comment : 07.08.2019
    Video
    ID : 0
    Format : MPEG-4 Visual
    Format profile : Advanced Simple@L5
    Format settings : BVOP1
    Format settings, BVOP : 1
    Format settings, QPel : No
    Format settings, GMC : No warppoints
    Format settings, Matrix : Default (MPEG)
    Codec ID : XVID
    Codec ID/Hint : XviD
    Duration : 52 min 8 s
    Bit rate : 1 600 kb/s
    Width : 720 pixels
    Height : 400 pixels
    Display aspect ratio : 16: 9
    Frame rate : 25.000 FPS
    Color space : YUV
    Chroma subsampling : 4: 2: 0
    Bit depth : 8 bits
    Scan type : Progressive
    Compression mode : Lossy
    Bits/(Pixel*Frame) : 0.222
    Stream size : 597 MiB (80%)
    Writing library : XviD 67
    Audio #1
    ID : 1
    Format : AC-3
    Format/Info : Audio Coding 3
    Commercial name : Dolby Digital
    Codec ID : 2000
    Duration : 52 min 8 s
    Bit rate mode : Constant
    Bit rate : 192 kb/s
    Channel(s) : 2 channels
    Channel layout : L R
    Sampling rate : 48.0 kHz
    Frame rate : 31.250 FPS (1536 SPF)
    Bit depth : 16 bits
    Compression mode : Lossy
    Stream size : 71.6 MiB (10%)
    Alignment : Split accross interleaves
    Interleave, duration : 40 ms (1.00 video frame)
    Interleave, preload duratio : 500 ms
    Service kind : Complete Main
    Audio #2
    ID : 2
    Format : AC-3
    Format/Info : Audio Coding 3
    Commercial name : Dolby Digital
    Codec ID : 2000
    Duration : 52 min 3 s
    Bit rate mode : Constant
    Bit rate : 192 kb/s
    Channel(s) : 2 channels
    Channel layout : L R
    Sampling rate : 48.0 kHz
    Frame rate : 31.250 FPS (1536 SPF)
    Bit depth : 16 bits
    Compression mode : Lossy
    Stream size : 71.5 MiB (10%)
    Alignment : Split accross interleaves
    Interleave, duration : 40 ms (1.00 video frame)
    Interleave, preload duratio : 500 ms
    Service kind : Complete Main

    Скриншоты для ознакомления



    Все одноименные релизы в Клубе
    Время раздачи: 24/7 (до появления первых 3-5 скачавших)

    Онлайн видео Доктор Хэрроу



    Доктор Хэрроу / Harrow (2019) WEB-DLRip (сезон 2, серии 1-10 из 10) Кириллица торрент скачать бесплатно
    Рейтинг →
     (голосов: 1, оценка 5/5, голосовать можно 1 раз )

    Другие торренты по теме:

  • Доктор Хэрроу / Harrow (2018) HDTVRip [H.264 / 720p-LQ] (сезон 1, серии 1-5 из 10) SunshineStudio (обновляемая) [AD]
  • Доктор Хэрроу / Harrow (2019) HDTVRip [H.264 / 1080p-LQ] (сезон 2, серии 1-10) AlexFilm
  • Доктор Хэрроу / Harrow (2018) WEB-DLRip (сезон 1, серии 1-10 из 10) Кириллица


    • Комментарии (0):

      Информация

      Информация

        Посетители, находящиеся в группе Гости, не могут оставлять комментарии в данной новости.

        ↓ Меню




        ↓ Опрос

        Вы добавили сайт в закладки?
        Да
        Нет


        Популярное