.
Авторизация | Регистрация
bitok.xyz
Торрент скачать бесплатно Фильмы торрент скачать Большая гонка на Аляске / The Great Alaskan Race (2019) WEB-DLRip [H.264 / 720p] [DVO] [AD] торрент скачать бесплатно


    Большая гонка на Аляске / The Great Alaskan Race (2019) WEB-DLRip [H.264 / 720p] [DVO] [AD] торрент скачать бесплатно

    Дата: 31-01-2020, 05:00 | .torrent скачали: 0

    Большая гонка на Аляске / The Great Alaskan Race (2019) WEB-DLRip [H.264 / 720p] [DVO] [AD]Производство: США/Rebel Road Entertainment
    Жанр: боевик, драма, приключения
    Режиссер: Брайан Прэсли
    Продюсер: Тимоти Патрик Кавано, Марк Дэвид, Брайан Прэсли

    Актеры
    Брайан Прэсли, Трит Уильямс, Брэд Лелэнд, Генри Томас, Брюс Дэвисон, Уилл Уоллес, Бреа Би, Джеймс Руссо, Eva Abshire, Talliah Agdeppa

    Описание

    Художественный фильм рассказывает о событиях, которые произошли на Аляске в в 1925 году. Небольшой городок Ном охватил свирепый вирус дифтерии у детей. Чтобы спасти заболевших необходимо как можно быстрее доставить антитоксин в больницу. Но разразилась сильная снежная буря, которая полностью отрезала все пути к городу. В связи с такими событиями, чемпион по гонкам на собаках Леонард Сеппала отправляется в путь на своих верных ездовых собаках, чтобы доставить лекарство.

    Рейтинг MPAA: PG (рекомендуется присутствие родителей)
    Дата мировой премьеры: 23 февраля 2019
    Продолжительность: 01: 25: 04
    Качество видео: WEB-DLRip
    Перевод: Двухголосый любительский (Синема УС)
    Субтитры: Отсутствуют
    Реклама: Присутствуют вставки голосовой, видео и баннерной рекламы
    Видео: AVC/H.264, 1280x536, ~5574 Kbps
    Аудио: AAC, 2 ch, 384 Kbps - Русский (MVO)
    General
    Unique ID : 220962693370205331936141224686393835234 (0xA63BDDE4FE554609A165B591FD853EE2)
    Complete name : H: ФильмыThe.Great.Alaskan.Race.2019.P.WEB-DL.72Op.mkv
    Format : Matroska
    Format version : Version 2
    File size : 3.54 GiB
    Duration : 1 h 25 min
    Overall bit rate mode : Variable
    Overall bit rate : 5 958 kb/s
    Encoded date : UTC 2020-01-29 13: 18: 35
    Writing application : mkvmerge v8.3.0 (\'Over the Horizon\') 64bit
    Writing library : libebml v1.3.1 + libmatroska v1.4.2
    Video
    ID : 1
    Format : AVC
    Format/Info : Advanced Video Codec
    Format profile : High@L4.1
    Format settings : CABAC/4 Ref Frames
    Format settings, CABAC : Yes
    Format settings, Reference : 4 frames
    Codec ID : V_MPEG4/ISO/AVC
    Duration : 1 h 25 min
    Bit rate mode : Variable
    Bit rate : 5 574 kb/s
    Nominal bit rate : 6 200 kb/s
    Maximum bit rate : 6 200 kb/s
    Width : 1 280 pixels
    Height : 536 pixels
    Display aspect ratio : 2.40: 1
    Frame rate mode : Constant
    Frame rate : 23.976 (24000/1001) FPS
    Standard : Component
    Color space : YUV
    Chroma subsampling : 4: 2: 0
    Bit depth : 8 bits
    Scan type : Progressive
    Bits/(Pixel*Frame) : 0.339
    Stream size : 3.31 GiB (94%)
    Writing library : x264 core 155
    Encoding settings : cabac=1/ref=4/deblock=1: 0: 0/analyse=0x3: 0x3/me=dia/subme=1/psy=1/psy_rd=1.00: 0.00/mixed_ref=0/me_range=16/chroma_me=1/trellis=0/8x8dct=1/cqm=1/deadzone=21, 11/fast_pskip=1/chroma_qp_offset=0/threads=17/lookahead_threads=2/sliced_threads=0/slices=1/nr=0/decimate=1/interlaced=0/minigop=0/stitchable=1/constrained_intra=0/bframes=2/b_pyramid=0/b_adapt=0/b_bias=0/direct=1/weightb=1/open_gop=1/weightp=0/keyint=240/keyint_min=23/scenecut=40/intra_refresh=0/rc_lookahead=0/rc=cbr/mbtree=0/bitrate=6200/ratetol=1.0/qcomp=0.60/qpmin=1/qpmax=69/qpstep=4/vbv_maxrate=6200/vbv_bufsize=6200/nal_hrd=vbr/filler=0/ip_ratio=1.40/pb_ratio=1.30/aq=1: 1.00
    Default : Yes
    Forced : No
    Color range : Limited
    Color primaries : BT.709
    Transfer characteristics : BT.709
    Matrix coefficients : BT.709
    Audio
    ID : 2
    Format : AAC Main
    Format/Info : Advanced Audio Codec
    Codec ID : A_AAC-1
    Duration : 1 h 25 min
    Bit rate : 384 kb/s
    Channel(s) : 2 channels
    Channel layout : L R
    Sampling rate : 48.0 kHz
    Frame rate : 46.875 FPS (1024 SPF)
    Compression mode : Lossy
    Stream size : 232 MiB (6%)
    Default : Yes
    Forced : No

    Скриншоты для ознакомления



    Все одноименные релизы в Клубе
    Время раздачи: c 7: 00 до 23: 00 МСК (до появления первых 3-5 скачавших)

    Онлайн видео Большая гонка на Аляске


    Большая гонка на Аляске/The Great Alaskan Race (2019) WEB-DLRip [H.264/720p] [DVO] [AD]

    Большая гонка на Аляске / The Great Alaskan Race (2019) WEB-DLRip [H.264 / 720p] [DVO] [AD] торрент скачать бесплатно
    Рейтинг →
     (голосов: 1, оценка 3/5, голосовать можно 1 раз )

    Другие торренты по теме:

  • Большая гонка. Наперегонки со стихией (2018) WEBRip [H.264 / 1080p-LQ]


    • Комментарии (0):

      Информация

      Информация

        Посетители, находящиеся в группе Гости, не могут оставлять комментарии в данной новости.

        ↓ Меню




        ↓ Опрос

        Вы добавили сайт в закладки?
        Да
        Нет


        Популярное