.
Авторизация | Регистрация
bitok.xyz
Торрент скачать бесплатно Фильмы торрент скачать На крыше / Na strese (2019) WEB-DLRip [MVO] [AD] торрент скачать бесплатно


    На крыше / Na strese (2019) WEB-DLRip [MVO] [AD] торрент скачать бесплатно

    Дата: 31-01-2020, 05:00 | .torrent скачали: 0

    На крыше / Na strese (2019) WEB-DLRip [MVO] [AD]Производство: Чехия/Dawson Films
    Жанр: Драма, Комедия
    Режиссер: Иржи Мадл

    Актеры
    Алоис Швеглик, Войтех Дык, Дэвид Швеглик, Дуй Ань Чан, Мария Хавранова, Адриан Ястрабан, Мария Барталос

    Описание

    Приехав в Прагу, двадцатилетний вьетнамец по имени Сонг надеется на лучшее будущее в Европе. Но он оказывается в ловушке, попав в дом, где выращивают марихуану, и теперь живёт как раб. В ходе полицейского обыска он сбегает и встречает престарелого мужчину, который живет один, скучает по прежним временам и жестко выступает против современного мира. С этого и начинается вся история.

    Возраст: 16+ (зрителям, достигшим 16 лет)
    Дата мировой премьеры: 07.02.2019
    Дата российской премьеры: неизвестно
    Продолжительность: 01: 41: 28
    Качество видео: WEB-DLRip
    Перевод: Двуголосый любительский (Синема УС)
    Субтитры: отсутствуют
    Реклама: присутствуют видео, аудио и баннерные вставки рекламы
    Видео: Xvid, 720x384, ~1662 Kbps
    Аудио: AC3, 2 ch, 256 Kbps
    General
    Complete name : /media/win/TORRENT/UPLOAD_TORRENTS/Ha_KpbI.IIIe.2019.P.WEB-DLRip.14OOMB.avi
    Format : AVI
    Format/Info : Audio Video Interleave
    File size : 1.37 GiB
    Duration : 1 h 41 min
    Overall bit rate : 1 928 kb/s
    Writing application : VirtualDubMod 1.5.10.3 |www.virtualdub-fr.org|| (build 2550/release)
    Writing library : VirtualDubMod build 2550/release
    Video
    ID : 0
    Format : MPEG-4 Visual
    Format profile : Advanced Simple@L5
    Format settings : BVOP2/Custom Matrix
    Format settings, BVOP : 2
    Format settings, QPel : No
    Format settings, GMC : No warppoints
    Format settings, Matrix : Custom
    Codec ID : XVID
    Codec ID/Hint : XviD
    Duration : 1 h 41 min
    Bit rate : 1 662 kb/s
    Width : 720 pixels
    Height : 384 pixels
    Display aspect ratio : 1.85: 1
    Frame rate : 23.976 (24000/1001) FPS
    Color space : YUV
    Chroma subsampling : 4: 2: 0
    Bit depth : 8 bits
    Scan type : Progressive
    Compression mode : Lossy
    Bits/(Pixel*Frame) : 0.251
    Stream size : 1.18 GiB (86%)
    Writing library : XviD 1.2.1 (UTC 2008-12-04)
    Audio
    ID : 1
    Format : AC-3
    Format/Info : Audio Coding 3
    Commercial name : Dolby Digital
    Codec ID : 2000
    Duration : 1 h 41 min
    Bit rate mode : Constant
    Bit rate : 256 kb/s
    Channel(s) : 2 channels
    Channel layout : L R
    Sampling rate : 48.0 kHz
    Frame rate : 31.250 FPS (1536 SPF)
    Compression mode : Lossy
    Stream size : 186 MiB (13%)
    Alignment : Split across interleaves
    Interleave, duration : 42 ms (1.00 video frame)
    Interleave, preload duration : 500 ms
    Service kind : Complete Main


    Онлайн видео На крыше


    На крыше/Na strese (2019) WEB-DLRip [MVO] [AD]

    На крыше / Na strese (2019) WEB-DLRip [MVO] [AD] торрент скачать бесплатно
    Рейтинг →
     (голосов: 1, оценка 5/5, голосовать можно 1 раз )

    Другие торренты по теме:

  • Гусар на крыше / Le hussard sur le toit / The Horseman on the Roof (1995) BDRemux [MPEG-2 / 1080p]
  • А. Линдгрен | Малыш и Карлсон, который живет на крыше (1976) [DJVU]
  • Кошка на раскаленной крыше / Cat on a Hot Tin Roof (1958) DVDRip [H.264]
  • На крыше мира / Долгий путь на север / Tout en haut du monde (2015) BDRip [H.264 / 720p] (FR / RU, EN Sub)
  • На крыше мира / Tout en haut du monde (2015) BDRip [VO]
  • Кошка на раскаленной крыше / Cat on a Hot Tin Roof (1958) BDRip [H.264]
  • Астрид Линдгрен | Малыш и Карлсон, который живет на крыше и другие сказки (2006) [MP3]
  • Астрид Линдгрен | Малыш и Карлсон, который живет на крыше (1968) [JPG]


    • Комментарии (0):

      Информация

      Информация

        Посетители, находящиеся в группе Гости, не могут оставлять комментарии в данной новости.

        ↓ Меню




        ↓ Опрос

        Вы добавили сайт в закладки?
        Да
        Нет


        Популярное