ВАЖНО! Сайт скоро заблокируют! Подписывайся на наш канал в Telegram https://t.me/torrentok и получи доступ к торрентам без ограничений!
.
Авторизация | Регистрация
bitok.xyz
Торрент скачать бесплатно Фильмы торрент скачать Доктор Сон / Doctor Sleep (2019) WEB-DLRip [Director`s Cut] [Line] [AD] торрент скачать бесплатно


    Доктор Сон / Doctor Sleep (2019) WEB-DLRip [Director`s Cut] [Line] [AD] торрент скачать бесплатно

    Дата: 31-01-2020, 05:00 | .torrent скачали: 7

    Доктор Сон / Doctor Sleep (2019) WEB-DLRip [Director`s Cut] [Line] [AD]Производство: США, Великобритания/Warner Bros., Intrepid Pictures, Vertigo Entertainment
    Жанр: ужасы, фэнтези, триллер, драма
    Режиссер: Майк Флэнеган
    Продюсер: Джон Берг, Акива Голдсман, Стивен Кинг

    Актеры
    Юэн Макгрегор, Ребекка Фергюсон, Кайли Кёрран, Брюс Гринвуд, Зан Маккларнон, Клифф Кёртис, Карл Ламбли, Джейкоб Тремблей, Закари Момо, Эмили Элин Линд

    Описание

    События показанный в фильм ужасов Доктор Сон являются прямым продолжением картины Сияние, а действия разворачиваются по прошествии множества лет после того, как мальчик-ясновидец Дэнни Торранс был вынужден пережить просто кошмарный сезон любимого сериала в отеле Оверлук. В том проклятом месте мальчик был вынужден стать свидетелем настоящего безумия своего отца, которая в последствии завершилось смертью на глазах сына. Дэнни стал взрослым, но он совершенно не может оправиться после полученных травм, в связи с чем ведет жизнь маргинала-алкоголика. Однажды с ним внезапно установила связь другая сияющая девочка, Абра. Она просит у Дэнни помощи, так как без него она станет жертвой так называемого Истинного Узла - опасная группа людей, которая ведет охоту на одаренных детей.

    Возраст: 18+ (зрителям, достигшим 18 лет. запрещено для детей)
    Рейтинг MPAA: R (лицам до 17 лет обязательно присутствие взрослого)
    Дата мировой премьеры: 30 октября 2019
    Дата российской премьеры: 7 ноября 2019
    Продолжительность: 03: 02: 07 (Расширенная версия)
    Качество видео: WEB-DLRip
    Перевод: Дублированный (Чистый звук)
    Субтитры: Отсутствуют
    Реклама: Присутствуют вставки голосовой, видео и баннерной рекламы
    Видео: Xvid, 720x384, ~1746 Kbps
    Аудио: AC3, 2 ch, 384 Kbps - Русский (DUB)
    General
    Complete name : H: ФильмыDoctor.Sleep.Directors.Cut.2019.D.WEB-DLRip.28OOMB.avi
    Format : AVI
    Format/Info : Audio Video Interleave
    Format profile : OpenDML
    File size : 2.72 GiB
    Duration : 3 h 2 min
    Overall bit rate : 2 141 kb/s
    Writing application : VirtualDubMod 1.5.10.3 |www.virtualdub-fr.org|| (build 2550/release)
    Writing library : VirtualDubMod build 2550/release
    Video
    ID : 0
    Format : MPEG-4 Visual
    Format profile : Advanced Simple@L5
    Format settings : BVOP2/Custom Matrix
    Format settings, BVOP : 2
    Format settings, QPel : No
    Format settings, GMC : No warppoints
    Format settings, Matrix : Custom
    Codec ID : XVID
    Codec ID/Hint : XviD
    Duration : 3 h 2 min
    Bit rate : 1 746 kb/s
    Width : 720 pixels
    Height : 384 pixels
    Display aspect ratio : 1.85: 1
    Frame rate : 23.976 (24000/1001) FPS
    Color space : YUV
    Chroma subsampling : 4: 2: 0
    Bit depth : 8 bits
    Scan type : Progressive
    Compression mode : Lossy
    Bits/(Pixel*Frame) : 0.263
    Stream size : 2.22 GiB (82%)
    Writing library : XviD 1.2.1 (UTC 2008-12-04)
    Audio
    ID : 1
    Format : AC-3
    Format/Info : Audio Coding 3
    Commercial name : Dolby Digital
    Codec ID : 2000
    Duration : 3 h 2 min
    Bit rate mode : Constant
    Bit rate : 384 kb/s
    Channel(s) : 2 channels
    Channel layout : L R
    Sampling rate : 48.0 kHz
    Frame rate : 31.250 FPS (1536 SPF)
    Compression mode : Lossy
    Stream size : 500 MiB (18%)
    Alignment : Split across interleaves
    Interleave, duration : 42 ms (1.00 video frame)
    Interleave, preload duratio : 500 ms
    Service kind : Complete Main

    Скриншоты для ознакомления



    Все одноименные релизы в Клубе
    Время раздачи: c 7: 00 до 23: 00 МСК (до появления первых 3-5 скачавших)

    Онлайн видео Доктор Сон


    Доктор Сон/Doctor Sleep (2019) WEB-DLRip [Director`s Cut] [Line] [AD]

    Доктор Сон / Doctor Sleep (2019) WEB-DLRip [Director`s Cut] [Line] [AD] торрент скачать бесплатно
    Рейтинг →
     (голосов: 1, оценка 3/5, голосовать можно 1 раз )

    Другие торренты по теме:

  • Доктор Кто. Возвращение Доктора Мистерио / Doctor Who. The Return of Doctor Mysterio (2016) WEB-DL [H.264 / 1080p-LQ] (сезон 10, серия 0) BaibaKo
  • Доктор Кто / Doctor Who (2014) WEB-DL [H.264 / 720p-LQ] (Сезон 8, серии 1-6 из 12) (BaibaKo) (обновляемая) скачать через торрент бесплатно
  • Доктор Кто / Doctor Who (2014) WEB-DLRip (Сезон 8, серии 1-6 из 12) (BaibaKo) (обновляемая) скачать через торрент бесплатно
  • Доктор Блейк / The Doctor Blake Mysteries (2014) WEB-DLRip (Сезон 2 / Серии 1-4 из 10) DreamRecords (обновляемая) скачать через торрент бесплатно
  • Доктор Кто / Doctor Who (2014) BDRip [H.264 / 1080р-LQ] (сезон 8, серии 0 - 13 из 13) (BaibaKo) скачать через торрент бесплатно
  • Доверьтесь мне, я доктор (фильм 1) / Trust Me, Im A Doctor (2013) IPTVRip скачать через торрент бесплатно
  • Доктор в ловушке / Doctor in Trouble (1970) DVDRip [H.264] скачать через торрент бесплатно
  • Доктор и его медсестры / Doctor in Clover (1966) DVDRip [H.264] скачать через торрент бесплатно


    • Комментарии (0):

      Информация

      Информация

        Посетители, находящиеся в группе Гости, не могут оставлять комментарии в данной новости.

        ↓ Меню




        Популярное