.
Авторизация | Регистрация
bitok.xyz
Торрент скачать бесплатно Фильмы торрент скачать Хороший лжец / The Good Liar (2019) BDRip [H.264 / 1080p] [AVO] [PR] торрент скачать бесплатно


    Хороший лжец / The Good Liar (2019) BDRip [H.264 / 1080p] [AVO] [PR] торрент скачать бесплатно

    Дата: 31-01-2020, 05:00 | .torrent скачали: 0

    Хороший лжец / The Good Liar (2019) BDRip [H.264 / 1080p] [AVO] [PR]Производство: Великобритания, США, Германия/BRON Studios, Creative Wealth Media Finance, New Line Cinema
    Жанр: Драма, детектив
    Режиссер: Билл Кондон

    Актеры
    Хелен Миррен, Иэн Маккеллен, Рассел Тови, Джим Картер, Марк Льюис Джонс, Лори Дэвидсон, Фил Данстер, Лусиан Мсамати, Йоуханнес Хёйкьюр Йоуханнессон, Тунджи Касим

    Описание

    Профессиональный мошенник Рой Кортни едва верит своей удаче, когда знакомится в сети с богатой вдовой Бетти МакЛиш. Очаровав вдову и получив доступ ко всем ее ресурсам, Рой ловит себя на том, что она ему небезразлична.

    Возраст: 18+ (зрителям, достигшим 18 лет. запрещено для детей)
    Рейтинг MPAA: R (лицам до 17 лет обязательно присутствие взрослого)
    Дата мировой премьеры: 8 ноября 2019
    Дата российской премьеры: 14 ноября 2019, Каро-Премьер
    Релиз от: AstralProjection
    Продолжительность: 01: 49: 35
    Качество видео: BDRip
    Перевод: Авторский (Вячеслав Замез aka zamez)
    Субтитры: Русские, Англйиские
    Видео: AVC/H.264, 1920x808, ~8467 Kbps
    Аудио#1: AC3, 6 ch, 448 Kbps | Русский
    Аудио#2: AC3, 2 ch, 320 Kbps | Английский
    Format : Matroska
    Format version : Version 4
    File size : 7.07 GiB
    Duration : 1 h 49 min
    Overall bit rate : 9 231 kb/s
    Encoded date : UTC 2020-01-30 06: 19: 42
    Writing application : mkvmerge v43.0.0 (\'The Quartermaster\') 64-bit
    Writing library : libebml v1.3.10 + libmatroska v1.5.2
    Video
    ID : 1
    Format : AVC
    Format/Info : Advanced Video Codec
    Format profile : High@L4.1
    Format settings : CABAC/4 Ref Frames
    Format settings, CABAC : Yes
    Format settings, Reference frames : 4 frames
    Codec ID : V_MPEG4/ISO/AVC
    Duration : 1 h 49 min
    Bit rate : 8 467 kb/s
    Width : 1 920 pixels
    Height : 808 pixels
    Display aspect ratio : 2.40: 1
    Frame rate mode : Constant
    Frame rate : 23.976 (24000/1001) FPS
    Color space : YUV
    Chroma subsampling : 4: 2: 0
    Bit depth : 8 bits
    Scan type : Progressive
    Bits/(Pixel*Frame) : 0.228
    Stream size : 6.48 GiB (92%)
    Writing library : x264 core 157 r2969 d4099dd
    Encoding settings : cabac=1/ref=4/deblock=1: 0: 0/analyse=0x3: 0x113/me=umh/subme=8/psy=1/psy_rd=1.00: 0.00/mixed_ref=1/me_range=16/chroma_me=1/trellis=1/8x8dct=1/cqm=0/deadzone=21, 11/fast_pskip=1/chroma_qp_offset=-2/threads=16/lookahead_threads=2/sliced_threads=0/nr=0/decimate=1/interlaced=0/bluray_compat=0/constrained_intra=0/bframes=3/b_pyramid=2/b_adapt=2/b_bias=0/direct=3/weightb=1/open_gop=0/weightp=2/keyint=240/keyint_min=23/scenecut=40/intra_refresh=0/rc_lookahead=50/rc=2pass/mbtree=1/bitrate=8467/ratetol=1.0/qcomp=0.60/qpmin=0/qpmax=69/qpstep=4/cplxblur=20.0/qblur=0.5/ip_ratio=1.40/aq=1: 1.00
    Language : English
    Default : Yes
    Forced : No
    Audio #1
    ID : 2
    Format : AC-3
    Format/Info : Audio Coding 3
    Commercial name : Dolby Digital
    Codec ID : A_AC3
    Duration : 1 h 49 min
    Bit rate mode : Constant
    Bit rate : 448 kb/s
    Channel(s) : 6 channels
    Channel layout : L R C LFE Ls Rs
    Sampling rate : 48.0 kHz
    Frame rate : 31.250 FPS (1536 SPF)
    Compression mode : Lossy
    Stream size : 351 MiB (5%)
    Language : Russian
    Service kind : Complete Main
    Default : Yes
    Forced : No
    Audio #2
    ID : 3
    Format : AC-3
    Format/Info : Audio Coding 3
    Commercial name : Dolby Digital
    Codec ID : A_AC3
    Duration : 1 h 49 min
    Bit rate mode : Constant
    Bit rate : 320 kb/s
    Channel(s) : 2 channels
    Channel layout : L R
    Sampling rate : 44.1 kHz
    Frame rate : 28.711 FPS (1536 SPF)
    Compression mode : Lossy
    Stream size : 251 MiB (3%)
    Language : English
    Service kind : Complete Main
    Default : No
    Forced : No
    Text #1
    ID : 4
    Format : UTF-8
    Codec ID : S_TEXT/UTF8
    Codec ID/Info : UTF-8 Plain Text
    Duration : 1 h 41 min
    Bit rate : 60 b/s
    Count of elements : 1691
    Stream size : 45.3 KiB (0%)
    Language : English
    Default : No
    Forced : No
    Text #2
    ID : 5
    Format : UTF-8
    Codec ID : S_TEXT/UTF8
    Codec ID/Info : UTF-8 Plain Text
    Duration : 1 h 48 min
    Bit rate : 89 b/s
    Count of elements : 1200
    Stream size : 70.7 KiB (0%)
    Language : Russian
    Default : Yes
    Forced : No
    Скриншоты для ознакомления



    Все одноименные релизы в Клубе
    Время раздачи: с 10: 00 до 2: 30 (до появления первых 3-5 скачавших)

    Онлайн видео Хороший лжец


    Хороший лжец/The Good Liar (2019) BDRip [H.264/1080p] [AVO] [PR]

    Хороший лжец / The Good Liar (2019) BDRip [H.264 / 1080p] [AVO] [PR] торрент скачать бесплатно
    Рейтинг →
     (голосов: 1, оценка 3/5, голосовать можно 1 раз )

    Другие торренты по теме:

  • Хороший лжец / The Good Liar (2019) HDRip [AVO]
  • Хороший лжец / The Good Liar (2019) BDRip [H.264 / 1080p] [PR]
  • Хороший лжец / The Good Liar (2019) BDRip [H.265 / 720p] [10-bit] [PR]
  • Хороший лжец / The Good Liar (2019) BDRip [H.265] [10-bit]
  • Хороший лжец / The Good Liar (2019) BDRip [H.264]
  • Хороший лжец / The Good Liar (2019) BDRemux [H.264 / 1080p]
  • Хороший лжец / The Good Liar (2019) BDRip [H.264 / 1080p]
  • Хороший лжец / The Good Liar (2019) BDRip [H.264 / 720p]


    • Комментарии (0):

      Информация

      Информация

        Посетители, находящиеся в группе Гости, не могут оставлять комментарии в данной новости.

        ↓ Меню




        ↓ Опрос

        Вы добавили сайт в закладки?
        Да
        Нет


        Популярное