.
Авторизация | Регистрация
bitok.xyz
Торрент скачать бесплатно Фильмы торрент скачать Гив ми либерти / Give Me Liberty (2019) WEB-DL [H.264 / 1080p-LQ] торрент скачать бесплатно


    Гив ми либерти / Give Me Liberty (2019) WEB-DL [H.264 / 1080p-LQ] торрент скачать бесплатно

    Дата: 31-01-2020, 05:00 | .torrent скачали: 1

    Гив ми либерти / Give Me Liberty (2019) WEB-DL [H.264 / 1080p-LQ]Производство: США/Give Me Liberty, Flux Capacitor Studios, The Space Program
    Жанр: Комедия
    Режиссер: Кирилл Михановский
    Продюсер: Вэл Абель, Уолтер С. Холл, Майкл Манассери

    Актеры
    Лорен Спенсер, Крис Галуст, Максим Стоянов, Дарья Екамасова, Зоя Махлина, Дороти Рейнольдс, Шерил Симс-Дэниэлс, Стив Волски, Мишель Каспар, Бен Дерфель

    Описание

    История о трех поколениях русской эмиграции, о мелких аферистах и обаятельных маргиналах, которые оказываются в одном микроавтобусе по дороге на шумные поминки.

    Дата мировой премьеры: 24 января 2019
    Дата российской премьеры: 1 августа 2019, A-One Films
    Релиз от: BLUEBIRD
    Продолжительность: 01: 50: 50
    Качество видео: WEB-DL
    Перевод: Не требуется (iTunes)
    Язык озвучки: Русский, английский
    Субтитры: Русские (на английскую речь)
    Видео: AVC/H.264, 1912x1026, ~5069 Kbps
    Аудио: AC3, 6 ch, 384 KbpsGeneral
    Unique ID : 235680660430268778566358631063423651333 (0xB14E71B214EBD6D7B4E84ED73A218E05)
    Complete name : GIMME_LIBERTY_2019_WEB-DL_1080p-BLUEBIRD.mkv
    Format : Matroska
    Format version : Version 4
    File size : 4.31 GiB
    Duration : 1 h 50 min
    Overall bit rate : 5 564 kb/s
    Movie name : GIMME_LIBERTY_2019_WEB-DL_1080p-BLUEBIRD
    Encoded date : UTC 2020-01-28 19: 55: 19
    Writing application : mkvmerge v6.9.1 (\'Blue Panther\') 32bit built on Apr 18 2014 18: 15: 44
    Writing library : libebml v1.3.0 + libmatroska v1.4.1
    Cover : Yes
    Attachments : cover.png
    Video
    ID : 1
    Format : AVC
    Format/Info : Advanced Video Codec
    Format profile : High@L4
    Format settings : CABAC/4 Ref Frames
    Format settings, CABAC : Yes
    Format settings, Reference : 4 frames
    Codec ID : V_MPEG4/ISO/AVC
    Duration : 1 h 50 min
    Bit rate : 5 069 kb/s
    Width : 1 912 pixels
    Height : 1 026 pixels
    Display aspect ratio : 1.85: 1
    Frame rate mode : Constant
    Frame rate : 24.000 FPS
    Color space : YUV
    Chroma subsampling : 4: 2: 0
    Bit depth : 8 bits
    Scan type : Progressive
    Bits/(Pixel*Frame) : 0.108
    Stream size : 3.92 GiB (91%)
    Title : GIMME_LIBERTY_2019_WEB-DL_1080p-BLUEBIRD
    Language : English
    Default : Yes
    Forced : No
    Color range : Limited
    Color primaries : BT.709
    Transfer characteristics : BT.709
    Matrix coefficients : BT.709
    Audio
    ID : 2
    Format : AC-3
    Format/Info : Audio Coding 3
    Commercial name : Dolby Digital
    Codec ID : A_AC3
    Duration : 1 h 50 min
    Bit rate mode : Constant
    Bit rate : 384 kb/s
    Channel(s) : 6 channels
    Channel layout : L R C LFE Ls Rs
    Sampling rate : 48.0 kHz
    Frame rate : 31.250 FPS (1536 SPF)
    Compression mode : Lossy
    Stream size : 304 MiB (7%)
    Title : ORIGINAL DD 5.1 @ 384 kbps (iTunes)
    Language : English
    Service kind : Complete Main
    Default : Yes
    Forced : No
    Text
    ID : 3
    Format : UTF-8
    Codec ID : S_TEXT/UTF8
    Codec ID/Info : UTF-8 Plain Text
    Title : Full-length
    Language : Russian
    Default : Yes
    Forced : No
    Menu
    00: 00: 00.000 : en: Chapter 1
    00: 16: 12.333 : en: Chapter 2
    00: 33: 27.124 : en: Chapter 3
    00: 52: 10.165 : en: Chapter 4
    01: 12: 57.665 : en: Chapter 5
    01: 32: 51.081 : en: Chapter 6
    ~2/3 фильма в переводе не нуждается (русская речь)
    Скриншоты для ознакомления




    Все одноименные релизы в Клубе
    Время раздачи: 24/7 (круглосуточно) (до появления первых 3-5 скачавших)

    Онлайн видео Гив ми либерти


    Гив ми либерти/Give Me Liberty (2019) WEB-DL [H.264/1080p-LQ]

    Гив ми либерти / Give Me Liberty (2019) WEB-DL [H.264 / 1080p-LQ] торрент скачать бесплатно
    Рейтинг →
     (голосов: 1, оценка 5/5, голосовать можно 1 раз )

    Другие торренты по теме:

  • Гив ми либерти / Give Me Liberty (2019) WEBRip [MVO] [AD]
  • Гив ми либерти / Give Me Liberty (2019) WEBRip [H.264 / 1080p-LQ] [MVO] [AD]
  • Гив ми либерти / Give Me Liberty (2019) WEB-DLRip [H.265] [10-bit]


    • Комментарии (0):

      Информация

      Информация

        Посетители, находящиеся в группе Гости, не могут оставлять комментарии в данной новости.

        ↓ Меню




        ↓ Опрос

        Вы добавили сайт в закладки?
        Да
        Нет


        Популярное