.
Авторизация | Регистрация
bitok.xyz
Торрент скачать бесплатно Фильмы торрент скачать Хорошие мальчики (Хорошие ребята) / Good Boys (2019) BDRip [H.264] торрент скачать бесплатно


    Хорошие мальчики (Хорошие ребята) / Good Boys (2019) BDRip [H.264] торрент скачать бесплатно

    Дата: 31-01-2020, 05:00 | .torrent скачали: 0

    Хорошие мальчики (Хорошие ребята) / Good Boys (2019) BDRip [H.264]Производство: США/Good Universe, Point Grey Pictures, Universal Pictures
    Жанр: Комедия, приключения
    Режиссер: Джин Ступницки
    Продюсер: Ли Айзенберг, Эван Голдберг, Сет Роген

    Актеры
    Джейкоб Тремблей, Кит Л. Уильямс, Брэйди Нун, Молли Гордон, Мидори Френсис, Исаак Ванг, Милли Дэвис, Джош Барклай Карас, Уилл Форте, Mariessa Portelance

    Описание

    История троих друзей-шестиклассников, планирующих посетить крутую вечеринку. Но прежде они должны хорошенько подготовиться, чтобы не ударить в грязь лицом. Так начинается безумное путешествие по долине Сан-Фернандо, в котором надо вернуть наркотики, украсть пиво и починить сломанного дрона — все это нужно сделать, пока родители не вернулись домой.

    Возраст: 16+ (зрителям, достигшим 16 лет)
    Рейтинг MPAA: R (лицам до 17 лет обязательно присутствие взрослого)
    Дата мировой премьеры: 11 марта 2019
    Релиз от: NNMClub
    Продолжительность: 01: 29: 38
    Качество видео: BDRip
    Язык озвучки: Русский, украинский, английский
    Перевод: Дублированный
    Субтитры: Русские (Forced, Full), английские (Full)
    Видео: AVC/H.264, 1024x428, ~2460 Kbps
    Аудио 1: AC3, 6 ch, 448 Kbps - Русский дубляж (Лицензия BD EUR)
    Аудио 2: AC3, 2 ch, 192 Kbps - Украинский дубляж (LeDoyen Studio)
    Аудио 3: AC3, 6 ch, 384 Kbps - Английский (Оригинал)General
    Unique ID : 11120778623978196667812300806106851639 (0x85DC8B7DF88E6A3F8DB752B44CF2937)
    Complete name : Good.Boys.2019.BDRip.AVC.NNMClub.mkv
    Format : Matroska
    Format version : Version 4
    File size : 2.18 GiB
    Duration : 1 h 29 min
    Overall bit rate : 3 484 kb/s
    Movie name : Good.Boys.2019.BDRip.AVC.NNMClub
    Encoded date : UTC 2020-01-30 03: 33: 18
    Writing application : mkvmerge v43.0.0 (\'The Quartermaster\') 64-bit
    Writing library : libebml v1.3.10 + libmatroska v1.5.2
    Video
    ID : 1
    Format : AVC
    Format/Info : Advanced Video Codec
    Format profile : High@L4.1
    Format settings : CABAC/11 Ref Frames
    Format settings, CABAC : Yes
    Format settings, Reference : 11 frames
    Codec ID : V_MPEG4/ISO/AVC
    Duration : 1 h 29 min
    Bit rate : 2 459 kb/s
    Width : 1 024 pixels
    Height : 428 pixels
    Display aspect ratio : 2.40: 1
    Frame rate mode : Constant
    Frame rate : 23.976 (24000/1001) FPS
    Color space : YUV
    Chroma subsampling : 4: 2: 0
    Bit depth : 8 bits
    Scan type : Progressive
    Bits/(Pixel*Frame) : 0.234
    Stream size : 1.54 GiB (71%)
    Title : Good.Boys.2019.BDRip.AVC.NNMClub
    Writing library : x264 core 159 r2991 1771b55
    Encoding settings : cabac=1/ref=11/deblock=1: -1: -1/analyse=0x3: 0x133/me=umh/subme=11/psy=1/psy_rd=1.05: 0.00/mixed_ref=1/me_range=32/chroma_me=1/trellis=2/8x8dct=1/cqm=0/deadzone=21, 11/fast_pskip=0/chroma_qp_offset=-2/threads=4/lookahead_threads=1/sliced_threads=0/nr=0/decimate=0/interlaced=0/bluray_compat=0/constrained_intra=0/bframes=11/b_pyramid=2/b_adapt=2/b_bias=0/direct=3/weightb=1/open_gop=0/weightp=2/keyint=240/keyint_min=23/scenecut=40/intra_refresh=0/rc_lookahead=60/rc=2pass/mbtree=0/bitrate=2459/ratetol=1.0/qcomp=0.60/qpmin=0/qpmax=69/qpstep=4/cplxblur=20.0/qblur=0.5/vbv_maxrate=50000/vbv_bufsize=62500/nal_hrd=none/filler=0/ip_ratio=1.40/pb_ratio=1.30/aq=1: 1.00
    Language : English
    Default : Yes
    Forced : No
    Audio #1
    ID : 2
    Format : AC-3
    Format/Info : Audio Coding 3
    Commercial name : Dolby Digital
    Codec ID : A_AC3
    Duration : 1 h 29 min
    Bit rate mode : Constant
    Bit rate : 448 kb/s
    Channel(s) : 6 channels
    Channel layout : L R C LFE Ls Rs
    Sampling rate : 48.0 kHz
    Frame rate : 31.250 FPS (1536 SPF)
    Compression mode : Lossy
    Stream size : 287 MiB (13%)
    Title : DUB-BD EUR
    Language : Russian
    Service kind : Complete Main
    Default : No
    Forced : No
    Audio #2
    ID : 3
    Format : AC-3
    Format/Info : Audio Coding 3
    Commercial name : Dolby Digital
    Codec ID : A_AC3
    Duration : 1 h 29 min
    Bit rate mode : Constant
    Bit rate : 192 kb/s
    Channel(s) : 2 channels
    Channel layout : L R
    Sampling rate : 48.0 kHz
    Frame rate : 31.250 FPS (1536 SPF)
    Compression mode : Lossy
    Stream size : 123 MiB (6%)
    Title : DUB-LeDoyen Studio
    Language : Ukrainian
    Service kind : Complete Main
    Default : No
    Forced : No
    Audio #3
    ID : 4
    Format : AC-3
    Format/Info : Audio Coding 3
    Commercial name : Dolby Digital
    Codec ID : A_AC3
    Duration : 1 h 29 min
    Bit rate mode : Constant
    Bit rate : 384 kb/s
    Channel(s) : 6 channels
    Channel layout : L R C LFE Ls Rs
    Sampling rate : 48.0 kHz
    Frame rate : 31.250 FPS (1536 SPF)
    Compression mode : Lossy
    Stream size : 246 MiB (11%)
    Title : Original
    Language : English
    Service kind : Complete Main
    Default : No
    Forced : No
    Text #1
    ID : 5
    Format : UTF-8
    Codec ID : S_TEXT/UTF8
    Codec ID/Info : UTF-8 Plain Text
    Duration : 1 h 28 min
    Bit rate : 3 b/s
    Count of elements : 53
    Stream size : 2.17 KiB (0%)
    Title : FORCED
    Language : Russian
    Default : No
    Forced : No
    Text #2
    ID : 6
    Format : UTF-8
    Codec ID : S_TEXT/UTF8
    Codec ID/Info : UTF-8 Plain Text
    Duration : 1 h 28 min
    Bit rate : 101 b/s
    Count of elements : 1454
    Stream size : 65.9 KiB (0%)
    Title : FULL
    Language : Russian
    Default : No
    Forced : No
    Text #3
    ID : 7
    Format : UTF-8
    Codec ID : S_TEXT/UTF8
    Codec ID/Info : UTF-8 Plain Text
    Duration : 1 h 22 min
    Bit rate : 82 b/s
    Count of elements : 1554
    Stream size : 49.3 KiB (0%)
    Title : FULL
    Language : English
    Default : No
    Forced : No
    Menu
    00: 00: 00.000 : en: 00: 00: 00.000
    00: 03: 54.025 : en: 00: 03: 54.025
    00: 09: 00.165 : en: 00: 09: 00.165
    00: 11: 51.169 : en: 00: 11: 51.169
    00: 15: 08.658 : en: 00: 15: 08.658
    00: 17: 29.840 : en: 00: 17: 29.840
    00: 21: 20.696 : en: 00: 21: 20.696
    00: 27: 27.646 : en: 00: 27: 27.646
    00: 31: 25.675 : en: 00: 31: 25.675
    00: 35: 06.104 : en: 00: 35: 06.104
    00: 40: 11.868 : en: 00: 40: 11.868
    00: 47: 16.208 : en: 00: 47: 16.208
    00: 51: 01.183 : en: 00: 51: 01.183
    00: 57: 54.388 : en: 00: 57: 54.388
    01: 02: 27.953 : en: 01: 02: 27.953
    01: 06: 46.544 : en: 01: 06: 46.544
    01: 09: 56.901 : en: 01: 09: 56.901
    01: 14: 19.497 : en: 01: 14: 19.497
    01: 20: 00.796 : en: 01: 20: 00.796
    01: 23: 35.427 : en: 01: 23: 35.427
    ---Information 30.01.2020 4: 04: 00 x264 info: frame I: 1895 Avg QP: 14.28 size: 90479
    ---Information 30.01.2020 4: 04: 00 x264 info: frame P: 34647 Avg QP: 17.52 size: 23300
    ---Information 30.01.2020 4: 04: 00 x264 info: frame B: 92398 Avg QP: 18.80 size: 7288
    ---Information 30.01.2020 4: 04: 00 x264 info: consecutive B-frames: 7.8% 3.7% 10.2% 23.4% 18.4% 28.2% 4.4% 1.5% 1.0% 0.5% 0.4% 0.5%
    Скриншоты для ознакомления




    Все одноименные релизы в Клубе
    Время раздачи: 24/7 (круглосуточно) (до появления первых 3-5 скачавших)

    Онлайн видео Хорошие мальчики (Хорошие ребята)


    Хорошие мальчики (Хорошие ребята)/Good Boys (2019) BDRip [H.264]

    Хорошие мальчики (Хорошие ребята) / Good Boys (2019) BDRip [H.264] торрент скачать бесплатно
    Рейтинг →
     (голосов: 1, оценка 4/5, голосовать можно 1 раз )

    Другие торренты по теме:

  • Хорошие мальчики / Good Boys (2019) WEB-DLRip [H.264 / 720p-LQ] [MVO] [AD]
  • Хорошие мальчики / Good Boys (2019) BDRip [H.264 / 1080p]
  • Хорошие мальчики / Good Boys (2019) BDRemux [H.264 / 1080p]
  • Хорошие мальчики / Good Boys (2019) BDRip
  • Хорошие мальчики / Good Boys (2019) BDRip
  • Хорошие мальчики / Good Boys (2019) BDRip [H.264 / 720p-LQ]
  • Хорошие мальчики / Good Boys (2019) BDRip [H.264 / 1080p-LQ] [hand made 16:9]
  • Хорошие мальчики / Good Boys (2019) BDRip [1080p] ATV


    • Комментарии (0):

      Информация

      Информация

        Посетители, находящиеся в группе Гости, не могут оставлять комментарии в данной новости.

        ↓ Меню




        ↓ Опрос

        Вы добавили сайт в закладки?
        Да
        Нет


        Популярное