.
Авторизация | Регистрация
bitok.xyz
Торрент скачать бесплатно Фильмы торрент скачать Перспектива / Prospect (2018) BDRip [H.265 / 720p] [10-bit] [PR] торрент скачать бесплатно


    Перспектива / Prospect (2018) BDRip [H.265 / 720p] [10-bit] [PR] торрент скачать бесплатно

    Дата: 31-01-2020, 05:00 | .torrent скачали: 0

    Перспектива / Prospect (2018) BDRip [H.265 / 720p] [10-bit] [PR]Производство: Канада, США/Depth of Field, Ground Control, BRON Studios
    Жанр: Фантастика, триллер, драма
    Режиссер: Кристофер Колдуэлл, Зик Эрл

    Актеры
    Софи Тэтчер, Джей Дюпласс, Педро Паскаль, Люк Питцрик, Артур Деранло, Андре Ройо, Алекс МакКоли, Даг Доусон, Криста Джонсон, Брайан Гантер

    Описание

    В надежде разбогатеть отец с дочерью отправляются на отдалённую луну, где планируют добывать драгоценные камни, сокрытые в глубине опасных лесов. Быстро выясняется, что на луне есть и другие люди, желающие поправить собственное финансовое положение. В итоге вся операция превращается в попытку выжить и сохранить свои жизни. Вынужденная сражаться не только с внешними врагами, но и с жадностью отца, девушка понимает, что она должна сама проложить себе путь к спасению.

    Рейтинг MPAA: R (лицам до 17 лет обязательно присутствие взрослого)
    Дата мировой премьеры: 10 марта 2018
    Цифровой релиз: 30 декабря 2019
    Продолжительность: 01: 39: 47
    Качество видео: BDRip
    Перевод: Дублированный (iTunes)
    Субтитры: Русские, английские
    Видео: HEVC/H.265, 1280x678, 4894 Kbps
    Аудио 1 : AC3, 6 ch, 384 Kbps | Русский
    Аудио 2 : AC3, 6 ch, 448 Kbps | АнглийскийОбщее
    Уникальный идентификатор : 3480110652209946890638255797953909463 (0x29E3EB3D477572C90E28FBFAEC852D7)
    Полное имя : Prospect.2018.BDRip.720p.HEVC.mkv
    Формат : Matroska
    Версия формата : Version 4/Version 2
    Размер файла : 4, 07 Гбайт
    Продолжительность : 1 ч. 39 м.
    Общий поток : 5843 Кбит/сек
    Название фильма : Prospect (2018)
    Программа кодирования : XviD4PSP 8.0.91
    Библиотека кодирования : Lavf58.20.100
    ErrorDetectionType : Per level 1
    ENCODING_INFO : MATROSKA, WEBM MKV 1280 x 720
    Видео
    Идентификатор : 1
    Формат : HEVC
    Формат/Информация : High Efficiency Video Coding
    Профиль формата : Main10@L4.1@High
    Идентификатор кодека : V_MPEGH/ISO/HEVC
    Продолжительность : 1 ч. 39 м.
    Битрейт : 4894 Кбит/сек
    Ширина : 1280 пикселей
    Высота : 678 пикселей
    Соотношение сторон : 1, 888
    Режим частоты кадров : Постоянный
    Частота кадров : 23, 976 (24000/1001) кадра/сек
    Цветовое пространство : YUV
    Субдискретизация насыщенности : 4: 2: 0
    Битовая глубина : 10 бит
    Бит/(Пиксели*Кадры) : 0.235
    Размер потока : 3, 41 Гбайт (84%)
    Заголовок : by. grab777
    Язык : English
    Default : Да
    Forced : Нет
    Цветовой диапазон : Limited
    Основные цвета : BT.709
    Характеристики трансфера : BT.709
    Коэффициенты матрицы : BT.709
    ENCODING_INFO : H264 HEVC NVENC VBR 5000kbps HQ
    Аудио #1
    Идентификатор : 2
    Формат : AC-3
    Формат/Информация : Audio Coding 3
    Параметр Endianness формата : Big
    Идентификатор кодека : A_AC3
    Продолжительность : 1 ч. 39 м.
    Вид битрейта : Постоянный
    Битрейт : 384 Кбит/сек
    Каналы : 6 каналов
    Расположение каналов : Front: L C R, Side: L R, LFE
    Частота : 48, 0 КГц
    Частота кадров : 31, 250 кадров/сек (1536 SPF)
    Битовая глубина : 16 бит
    Метод сжатия : С потерями
    Размер потока : 274 Мбайт (7%)
    Заголовок : DUB (iTunes)
    Язык : Russian
    ServiceKind/String : Complete Main
    Default : Да
    Forced : Нет
    ENCODING_INFO : AC3 COPY Безопасное
    Аудио #2
    Идентификатор : 3
    Формат : AC-3
    Формат/Информация : Audio Coding 3
    Параметр Endianness формата : Big
    Идентификатор кодека : A_AC3
    Продолжительность : 1 ч. 39 м.
    Вид битрейта : Постоянный
    Битрейт : 448 Кбит/сек
    Каналы : 6 каналов
    Расположение каналов : Front: L C R, Side: L R, LFE
    Частота : 48, 0 КГц
    Частота кадров : 31, 250 кадров/сек (1536 SPF)
    Битовая глубина : 16 бит
    Метод сжатия : С потерями
    Размер потока : 320 Мбайт (8%)
    Заголовок : Original
    Язык : English
    ServiceKind/String : Complete Main
    Default : Нет
    Forced : Нет
    ENCODING_INFO : DTS-HD MA AC3 CBR 448kbps
    Текст #1
    Идентификатор : 4
    Формат : UTF-8
    Идентификатор кодека : S_TEXT/UTF8
    Идентификатор кодека/Информация : UTF-8 Plain Text
    Язык : Russian
    Default : Да
    Forced : Нет
    ENCODING_INFO : SUBRIP COPY Быстрое
    Текст #2
    Идентификатор : 5
    Формат : UTF-8
    Идентификатор кодека : S_TEXT/UTF8
    Идентификатор кодека/Информация : UTF-8 Plain Text
    Язык : English
    Default : Нет
    Forced : Нет
    ENCODING_INFO : SUBRIP COPY Быстрое
    Меню
    00: 00: 00.000 : : Chapter 1
    00: 13: 06.536 : : Chapter 2
    00: 35: 13.570 : : Chapter 3
    00: 54: 41.236 : : Chapter 4
    01: 12: 33.057 : : Chapter 5
    01: 27: 07.889 : : Chapter 6

    Скриншоты для ознакомления



    Все одноименные релизы в Клубе
    Время раздачи: 19 - 23 (до появления первых 3-5 скачавших)

    Онлайн видео Перспектива


    Перспектива/Prospect (2018) BDRip [H.265/720p] [10-bit] [PR]

    Перспектива / Prospect (2018) BDRip [H.265 / 720p] [10-bit] [PR] торрент скачать бесплатно
    Рейтинг →
     (голосов: 1, оценка 4/5, голосовать можно 1 раз )

    Другие торренты по теме:

  • Перспектива / Prospect (2018) WEB-DLRip [MVO] [AD]
  • Перспектива / Prospect (2018) WEB-DLRip [H.264 / 1080p-LQ] [MVO]
  • Перспектива / Prospect (2018) WEB-DLRip [H.264 / 720p-LQ]
  • Перспектива / Prospect (2018) WEB-DL [H.264 / 1080p-LQ] [MVO]
  • Перспектива / Prospect (2018) UHD BDRip [H.265 / 2160p] [4K, HDR, 10-bit]
  • Перспектива / Prospect (2018) BDRip [H.264 / 1080p]
  • Перспектива / Prospect (2018) BDRip [H.264]
  • Перспектива / Prospect (2018) BDRip


    • Комментарии (0):

      Информация

      Информация

        Посетители, находящиеся в группе Гости, не могут оставлять комментарии в данной новости.

        ↓ Меню




        ↓ Опрос

        Вы добавили сайт в закладки?
        Да
        Нет


        Популярное